原生系统
一派掌门

[2021] [日本] [打包] [完结] [BT下载][超级骗子.Super.Crooks][全13集][日英双语内封简繁多国软字幕.无水印][WEB-MKV][1080P][AGLET][网飞版]

-->


◎译  名 超级骗子 / 超级小偷 / 超能骗子

◎片  名 Super Crooks

◎年  代 2021

◎产  地 日本

◎类  别 动作 / 科幻 / 动画 / 犯罪 / 奇幻 / 冒险

◎语  言 日语

◎上映日期 2021-11-25(日本)

◎IMDb评分 0/10 from 0 users

◎IMDb链接 https://www.imdb.com/title/tt14272628

◎豆瓣评分 0/10 from 0 users

◎豆瓣链接 https://movie.douban.com/subject/30490082

◎集  数 13

◎片  长 25分钟

◎导  演 堀元宣 Hori Motonobu

◎编  剧 马克·米勒 Mark Millar / 佐藤大 Dai Sato

◎主  演 津田健次郎 Kenjirô Tsuda

       坂本真绫 Maaya Sakamoto

       诹访部顺一 Junichi Suwabe

       稻田彻 Tetsu Inada

       木村昴 Subaru Kimura

       羽多野涉 Wataru Hatano

       泷正则 Pierre Taki

       江川央生 Hisao Egawa

       大桥贤一郎 KENN

       竹本英史 Eiji Takemoto

       家中宏 Hiroshi Yanaka


◎标  签 Netflix | 动画 | 日本 | BONES | 动漫 | 日本动画 | 漫改 | 2021


◎简  介


  《海扁王》、《王牌特工》、《通缉令》等漫画的作者马克·米勒(Mark Millar)又有两部漫画将被改编成电影了,Waypoint娱乐公司今天宣布他们已经获得《美国耶稣》(American Jesus)和《超级骗子》(Supercrooks)两部漫画的电影版权,正着手将其拍成电影。

  《美国耶稣》(American Jesus)讲述了一个当代美国的12岁男孩有一天得知自己就是耶稣转世,而他的使命就是拯救人类的故事。《超级骗子》(Supercrooks)则讲述了八个超级坏蛋重出江湖,策划盗窃全世界最臭名昭著的犯罪大佬的财产,以恶制恶的故事。

  目前还不清《美国耶稣》和《超级骗子》什么时候开始制作。



Video
ID : 1
Format : AVC
Format/Info : Advanced Video Codec
Format profile : [email protected]
Format settings : CABAC / 3 Ref Frames
Format settings, CABAC : Yes
Format settings, Reference frames : 3 frames
Codec ID : V_MPEG4/ISO/AVC
Duration : 23 min 29 s
Bit rate mode : Variable
Bit rate : 3 576 kb/s
Nominal bit rate : 3 809 kb/s
Maximum bit rate : 6 630 kb/s
Width : 1 920 pixels
Height : 1 080 pixels
Display aspect ratio : 16:9
Frame rate mode : Constant
Frame rate : 23.976 (24000/1001) FPS
Color space : YUV
Chroma subsampling : 4:2:0
Bit depth : 8 bits
Scan type : Progressive
Bits/(Pixel*Frame) : 0.072
Stream size : 601 MiB (74%)
Writing library : x264 core 148 r2727 7d026e8
Encoding settings : cabac=1 / ref=3 / deblock=1:0:0 / analyse=0x1:0x111 / me=umh / subme=10 / psy=1 / psy_rd=1.00:0.00 / mixed_ref=1 / me_range=24 / chroma_me=1 / trellis=2 / 8x8dct=0 / cqm=0 / deadzone=21,11 / fast_pskip=1 / chroma_qp_offset=-2 / threads=8 / lookahead_threads=1 / sliced_threads=0 / nr=0 / decimate=1 / interlaced=0 / bluray_compat=0 / stitchable=1 / constrained_intra=0 / bframes=2 / b_pyramid=0 / b_adapt=2 / b_bias=0 / direct=3 / weightb=1 / open_gop=0 / weightp=2 / keyint=250 / keyint_min=23 / scenecut=0 / intra_refresh=0 / rc_lookahead=48 / rc=2pass / mbtree=1 / bitrate=3809 / ratetol=1.0 / qcomp=0.50 / qpmin=6 / qpmax=51 / qpstep=4 / cplxblur=20.0 / qblur=0.5 / vbv_maxrate=6630 / vbv_bufsize=8840 / nal_hrd=vbr / filler=0 / ip_ratio=1.40 / aq=1:1.00
Default : Yes
Forced : No

Audio #1
ID : 2
Format : E-AC-3
Format/Info : Enhanced AC-3
Commercial name : Dolby Digital Plus
Codec ID : A_EAC3
Duration : 23 min 30 s
Bit rate mode : Constant
Bit rate : 640 kb/s
Channel(s) : 6 channels
Channel layout : L R C LFE Ls Rs
Sampling rate : 48.0 kHz
Frame rate : 31.250 FPS (1536 SPF)
Compression mode : Lossy
Stream size : 108 MiB (13%)
Language : Japanese
Service kind : Complete Main
Default : Yes
Forced : No

Audio #2
ID : 3
Format : E-AC-3
Format/Info : Enhanced AC-3
Commercial name : Dolby Digital Plus
Codec ID : A_EAC3
Duration : 23 min 30 s
Bit rate mode : Constant
Bit rate : 640 kb/s
Channel(s) : 6 channels
Channel layout : L R C LFE Ls Rs
Sampling rate : 48.0 kHz
Frame rate : 31.250 FPS (1536 SPF)
Compression mode : Lossy
Stream size : 108 MiB (13%)
Language : English
Service kind : Complete Main
Default : No
Forced : No


.....


Text #31
ID : 34
Format : UTF-8
Codec ID : S_TEXT/UTF8
Codec ID/Info : UTF-8 Plain Text
Duration : 22 min 36 s
Bit rate : 37 b/s
Count of elements : 213
Stream size : 6.20 KiB (0%)
Title : Simplified
Language : Chinese
Default : No
Forced : No

Text #32
ID : 35
Format : UTF-8
Codec ID : S_TEXT/UTF8
Codec ID/Info : UTF-8 Plain Text
Duration : 22 min 36 s
Bit rate : 37 b/s
Count of elements : 212
Stream size : 6.24 KiB (0%)
Title : Traditional
Language : Chinese
Default : No
Forced : No


本人发布的种子请使用专业BT下载工具:

UT,Bitcomet,qBittorrent,Xdown开启上传后再下载!!!

使用迅雷或度盘离线可能会没速度!!!


视频的网盘资源均在视频后缀(如mp4或mkv)后又跟随了.xy(mp4.xy或mkv.xy)用以混淆官方视听!
并且加密了文件名,设置了独有的解压密码,请使用WinRAR解压,使用好压或其他可能会出错!
已完结剧集不再分集打包上传,整体打包后分卷,无法单独下载某一集,需要全部下载后一起解压,敬请知晓!
请各位下载的坛友先保存至自己的网盘,然后再进行下载!!!
不要直接在线观看或者解压,否则会很快被网盘官方发觉并和谐!


阿里云盘后缀名凡是“PDF”的,请在下载完成后将后缀名“PDF”修改为“rar”,即可正常解压,观看!

目前阿里云盘上传和下载均不限速,趁着这段“免费VIP”的时间,就暂时放弃度盘吧!


请下载完成的朋友自觉做种一段时间,小水管出种不易,且下且珍惜,谢谢!!!


解压请使用官方原版WinRAR,使用破解版或者好压等软件可能会出错,感谢所有赞赏的朋友!!!


1 个附件 售价 大小 下载 时间

Super.Crooks.S01.JAPANESE.1080p.NF.WEBRip.DDP5.1.x264-AGLET.rar 0 金币 1.18M 6062 次 2天前

#1楼
发帖时间:2021-11-25 20:59:14   |   回复数:3
tokyoal
武林盟主
谢谢分享
2天前 #2楼
popeye69
武林高手
谢谢楼主分享。
2天前 #3楼
Bjxiaoyu1986
小有名气
多谢楼主分享~
1天前 #4楼
游客组