yxypc
武林高手

[2005] [美国] [励志] [纯净版] [网盘下载][风雨哈佛路/Homeless to Harvard][mp4/2.2G][英语/中英字幕][720p]

-->

◎译  名  风雨哈佛路
◎片  名  Homeless to Harvard
◎年  代  2003
◎国  家  美国
◎类  别  剧情
◎语  言  英语
◎字  幕  中英特效字幕/简体中文字幕/繁体中文字幕/英文字幕/中英双语字幕
◎IMDB评分 7.1/10(927 votes)
◎文件格式  x264+AAC
◎视频尺寸  980 x720
◎文件大小  2.2G
◎片  长  01:27:18.102
◎导  演  Peter Levin
◎编  剧  Ronni Kern ....(written by)
◎主  演  索拉·伯奇 Thora Birch ....Liz Murray
       迈克·里雷 Michael Riley ....Peter
       Robert Bockstael ....David
       Makyla Smith ....Chris
       凯莉·林奇 Kelly Lynch ....Jean Murray
       艾伦·佩姬 Ellen Page ....Young Lisa
     

◎简  介
  她的爸妈都是毒虫,妈妈患了精神分裂症,双眼失明,后来死于AIDS。住过收容所,也睡过地铁站,从来没有一个象样的家的她,青少年的岁月多半是在慌乱的流浪中度过的。偶尔,她还要扮演大人的角色,回去照顾她的爸妈和姊姊,多少次,她流泪坐在妈妈的病床前面。她身边的人,多半是遭遇不幸的人。同侪暴力、性虐待和精神疾病。一日复一日,她活在一个没有希望和梦想的世界里。
  “每天起床,我看见的世界上的每个人,都好像都披着一层膜,无法穿透。这种感觉很奇怪,有点悲哀,可是没有办法改变。”
  奇怪的是,贫穷和负面的童年经验,并没有让她变坏或者失去希望,隐隐约约之中,她一直都知道,在她生长的环境之外,其它人所过的,是很不一样的生活。而她知道,只有想办法脱离现在的环境,才有可能到那个新世界去。母亲死后的几个月,在没有经济来源、没有精神鼓励的情况下,她自己一个人,申请进入一所私立高中,因为她相信,读公立高中并不能帮她跳出贫苦的轮回。开始念书之后,她还是没有地方睡,还要在肮脏的洗碗槽前面,一面工作赚微薄的薪水,一面念微积分、几何学。
  她身边的所有亲人、朋友全都告诉她,没有用的,不要痴心妄想进大学。可是当她拿到班上第一名,得到机会参观哈佛校园的那天,她就狠狠地发誓,要成为哈佛的一员。那天,当她看着走在哈佛校园里的男男女女,心里不禁问自己,“这些人的动作举止,为什么这么不一样?是不是因为,他们来的世界就是这么不一样?若是这样,那我要更努力、更努力,把我自己推到那个世界去。”
  为了念哈佛,她必须要申请奖学金,找遍了所有的奖学金信息,她发现纽约时报提供全额的奖学金,足够让她去念昂贵的哈佛。面试的那天,她连一件象样的衣服都没有,穿着一件破烂衣服,罩上一件向姊姊借来的大衣勉强充场面。果然,她得到了那笔奖金,进了哈佛。领奖致词的那天,她说,她的生命就在那一刻,将永远地被改变。Liz Murray,一个最贫穷,也最勇敢的哈佛女孩。




General

Unique ID                      : 245838514150762507919467493216742288975 (0xB8F2C68CFA81E4B89F65F0CA07B02E4F)

Complete name                  : G:\选修课电影\风雨哈佛路.mp4

Format                         : Matroska

Format version                 : Version 4

File size                      : 2.23 GiB

Duration                       : 1 h 27 min

Overall bit rate               : 3 653 kb/s

Encoded date                   : UTC 2017-05-10 14:44:16

Writing application            : mkvmerge v9.3.1 ('Mask Machine') 64bit

Writing library                : libebml v1.3.4 + libmatroska v1.4.5

Attachments                    : hwkaiti.ttf / cronospro.otf

FileExtension_Invalid          : mkv mk3d mka mks


Video

ID                             : 1

Format                         : AVC

Format/Info                    : Advanced Video Codec

Format profile                 : [email protected]

Format settings                : CABAC / 3 Ref Frames

Format settings, CABAC         : Yes

Format settings, Reference fra : 3 frames

Codec ID                       : V_MPEG4/ISO/AVC

Duration                       : 1 h 27 min

Bit rate                       : 3 000 kb/s

Width                          : 988 pixels

Height                         : 720 pixels

Display aspect ratio           : 4:3

Frame rate mode                : Constant

Frame rate                     : 25.000 FPS

Color space                    : YUV

Chroma subsampling             : 4:2:0

Bit depth                      : 8 bits

Scan type                      : Progressive

Bits/(Pixel*Frame)             : 0.169

Stream size                    : 1.82 GiB (82%)

Writing library                : x264 core 148

Encoding settings              : cabac=1 / ref=3 / deblock=1:0:0 / analyse=0x3:0x113 / me=hex / subme=7 / psy=1 / psy_rd=1.00:0.00 / mixed_ref=1 / me_range=16 / chroma_me=1 / trellis=1 / 8x8dct=1 / cqm=0 / deadzone=21,11 / fast_pskip=1 / chroma_qp_offset=-2 / threads=4 / lookahead_threads=1 / sliced_threads=0 / nr=0 / decimate=1 / interlaced=0 / bluray_compat=0 / constrained_intra=0 / bframes=0 / weightp=2 / keyint=12 / keyint_min=1 / scenecut=40 / intra_refresh=0 / rc_lookahead=12 / rc=abr / mbtree=1 / bitrate=3000 / ratetol=1.0 / qcomp=0.60 / qpmin=0 / qpmax=51 / qpstep=4 / ip_ratio=1.40 / aq=1:1.00

Language                       : English

Default                        : Yes

Forced                         : No


Audio #1

ID                             : 2

Format                         : AC-3

Format/Info                    : Audio Coding 3

Commercial name                : Dolby Digital

Codec ID                       : A_AC3

Duration                       : 1 h 27 min

Bit rate mode                  : Constant

Bit rate                       : 320 kb/s

Channel(s)                     : 2 channels

Channel layout                 : L R

Sampling rate                  : 44.1 kHz

Frame rate                     : 28.711 FPS (1536 SPF)

Bit depth                      : 16 bits

Compression mode               : Lossy

Delay relative to video        : -5 ms

Stream size                    : 200 MiB (9%)

Title                          : 英语

Language                       : English

Service kind                   : Complete Main

Default                        : Yes

Forced                         : No


Audio #2

ID                             : 3

Format                         : AC-3

Format/Info                    : Audio Coding 3

Commercial name                : Dolby Digital

Codec ID                       : A_AC3

Duration                       : 1 h 27 min

Bit rate mode                  : Constant

Bit rate                       : 320 kb/s

Channel(s)                     : 2 channels

Channel layout                 : L R

Sampling rate                  : 48.0 kHz

Frame rate                     : 31.250 FPS (1536 SPF)

Bit depth                      : 16 bits

Compression mode               : Lossy

Delay relative to video        : -5 ms

Stream size                    : 200 MiB (9%)

Title                          : 国语

Language                       : Chinese

Service kind                   : Complete Main

Default                        : No

Forced                         : No


【百度网盘下载地址】https://pan.baidu.com/s/1qXAcbTE

下载后将后缀pdf改为mp4



#1楼
发帖时间:2022-03-18 22:14:15   |   回复数:3
ak147
超凡入圣№
感谢大大分享
10月前 #2楼
ALLEN820213
隐世仙人♂
感谢楼主分享 !!!
10月前 #3楼
ALLEN820213
隐世仙人♂
感谢楼主分享 !!!
10月前 #4楼
游客组