原生系统
一派掌门

[2021] [大陆] [动作] [纯净版] [BT下载][神兵特攻.One.More.Shot][WEB-MP4/1.13GB][国语中英双字][4K][Vampire][普码版]

-->


◎译  名 One More Shot

◎片  名 神兵特攻

◎年  代 2021

◎产  地 中国大陆

◎类  别 动作 / 科幻

◎语  言 汉语普通话

◎上映日期 2021-09-17(中国大陆网络)

◎豆瓣评分 0/10 from 0 users

◎豆瓣链接 https://movie.douban.com/subject/35043230

◎片  长 82分钟

◎编  剧 史超 Chao Shi

◎主  演 樊少皇 Siu-Wong Fan

       姜怡伊 Yiyi Jiang


◎标  签 力王 | 动作片 | 大陆 | 动作 | 樊少皇 | 网络大电影


◎简  介


  《神兵特攻》的故事发生在一个科技高度发达的未来都市。曾经的出色保镖龙威失去妻子后带着受伤的女儿隐居海外,一次见义勇救下了科技公司技术员艾米,对方邀请他到公司参与新产品武装机甲的测试。面试过程中公司启用了最先进的虚拟现实技术。在虚拟现实世界里,龙威为了挽救艾米等科研人员的生命,踏上了未知的梦境之旅…...



General

Complete name               : 神兵特攻.One.More.Shot.2021.4K.WEB-DL.X265.AAC-Vampire.mp4

Format                      : MPEG-4

Format profile              : Base Media

Codec ID                    : isom (isom/iso2/mp41)

File size                   : 1.14 GiB

Duration                    : 1 h 22 min

Overall bit rate            : 1 977 kb/s

Movie name                  : 神兵特攻/One.More.Shot

Album                       : 国产大电影系列

Performer                   : Vampire制作分享作品

Genre                       : 中国大陆

Recorded date               : 2021

Writing application         : Lavf58.29.100

Cover                       : Yes

Comment                     : 警告:严禁将本人制作的任何作品用于商业性质活动,所有制作作品仅限于测试宽带之用,请于下载后24小时内删除。本人不承担任何法律后果!喜欢本作品请购买正版!!!


Video

ID                          : 1

Format                      : HEVC

Format/Info                 : High Efficiency Video Coding

Format profile              : [email protected]@Main

Codec ID                    : hev1

Codec ID/Info               : High Efficiency Video Coding

Duration                    : 1 h 22 min

Bit rate                    : 1 844 kb/s

Width                       : 3 840 pixels

Height                      : 1 632 pixels

Display aspect ratio        : 2.35:1

Frame rate mode             : Variable

Frame rate                  : 25.000 FPS

Minimum frame rate          : 24.993 FPS

Maximum frame rate          : 25.007 FPS

Color space                 : YUV

Chroma subsampling          : 4:2:0

Bit depth                   : 8 bits

Bits/(Pixel*Frame)          : 0.012

Stream size                 : 1.06 GiB (93%)

Codec configuration box     : hvcC


Audio

ID                          : 2

Format                      : AAC LC

Format/Info                 : Advanced Audio Codec Low Complexity

Codec ID                    : mp4a-40-2

Duration                    : 1 h 22 min

Bit rate mode               : Constant

Bit rate                    : 125 kb/s

Channel(s)                  : 2 channels

Channel layout              : L R

Sampling rate               : 48.0 kHz

Frame rate                  : 46.875 FPS (1024 SPF)

Compression mode            : Lossy

Stream size                 : 73.9 MiB (6%)

Default                     : Yes

Alternate group             : 1


本人发布的种子请使用专业BT下载工具:

UT,Bitcomet,qBittorrent,Xdown开启上传后再下载!!!

使用迅雷或度盘离线可能会没速度!!!


视频的网盘资源均在视频后缀(如mp4或mkv)后又跟随了.xy(mp4.xy或mkv.xy)用以混淆官方视听!
并且加密了文件名,设置了独有的解压密码,请使用WinRAR解压,使用好压或其他可能会出错!
已完结剧集不再分集打包上传,整体打包后分卷,无法单独下载某一集,需要全部下载后一起解压,敬请知晓!
请各位下载的坛友先保存至自己的网盘,然后再进行下载!!!
不要直接在线观看或者解压,否则会很快被网盘官方发觉并和谐!


阿里云盘后缀名凡是“PDF”的,请在下载完成后将后缀名“PDF”修改为“rar”,即可正常解压,观看!

目前阿里云盘上传和下载均不限速,趁着这段“免费VIP”的时间,就暂时放弃度盘吧!


请下载完成的朋友自觉做种一段时间,小水管出种不易,且下且珍惜,谢谢!!!


解压请使用官方原版WinRAR,使用破解版或者好压等软件可能会出错,感谢所有赞赏的朋友!!!


1 个附件 售价 大小 下载 时间

神兵特攻.One.More.Shot.2021.4K.WEB-DL.X265.AAC-Vampire.rar 0 金币 1.32M 13692 次 1月前

#1楼
发帖时间:2021-09-17 19:54:32   |   回复数:5
sker81
一代宗师
谢谢楼主分享!!!!!
1月前 #2楼
ALLEN820213
隐世仙人♂
感谢楼主分享 !!!
1月前 #3楼
liyouchai
隐世仙人♂
谢谢楼主分享资源
1月前 #4楼
wrl111
武林高手
感觉分享!!已下
1月前 #5楼
ak147
超凡入圣№
感谢大大分享
1月前 #6楼
游客组