travismk
一代宗师

[2010] [欧美] [其它] [WEB-1080P] 芭比之美人鱼历险记 Barbie.in.a.Mermaid.Tale.2010.1080p.PCOK.WEBRip.DDP5.1.x264-SiGLA 4.32

-->

帖子完整标题:芭比之美人鱼历险记 Barbie.in.a.Mermaid.Tale.2010.1080p.PCOK.WEBRip.DDP5.1.x264-SiGLA 4.32GB



◎标  题 芭比之美人鱼历险记
◎片  名 Barbie in a Mermaid Tale
◎年  代 2010
◎产  地 美国
◎类  别 动画 / 家庭
◎语  言 英语
◎上映日期 2010-03-02
◎IMDb评分 6.2/10 (2983人评价)
◎IMDb链接 https://www.imdb.com/title/tt1610301/
◎豆瓣评分 8.3/10 (7083人评价)
◎豆瓣链接 https://movie.douban.com/subject/4714448/
◎片  长 74分钟
◎演  员 凯瑟琳·巴尔 Kathleen Barr
      凯莉·谢里丹 Kelly Sheridan
      安德莉亚·利布曼 Andrea Libman
      史葛·麦克尼尔 Scott McNeil
      娜吉雅布莱斯 Nakia Burrise
      加里·切克 Gary Chalk
      艾玛·皮尔森 Emma Pierson
      阿莱克斯·费瑞斯 Alex Ferris
      Rob Hudnut Rob Hudnut
      Kim Dent-Wilder Kim Dent-Wilder

◎简  介
  美琳(Kelly Sheridan 配音)是一个热爱大海的女孩,在一场冲浪比赛中,美琳遇见了一只名为祖玛(Tabitha St. Germain 配音)的海豚,海豚告诉美琳,她拥有能够在水中呼吸的特异功能,因为她的母亲是海之女王卡丽莎(Nicole Oliver 配音),也就是说,一直被蒙在鼓里的美琳是人鱼公主。
又惊又喜的美琳将整件事件告诉了好友范伦(Nakia Burrise 配音)和海蒂(Maryke Hendrikse 配音),两个姑娘都替美琳感到高兴。不幸的是,美琳得知位于海底的海蓝王国正在发生一些邪恶而可怕的事情,而美琳是能够挽救王国于水火之中的唯一人选。就这样,美琳开始了她的海底奇妙探险,在重重的危险之中,美琳能够顺利完成任务吗?

Video
ID : 1
Format : AVC
Format/Info : Advanced Video Codec
Format profile : [email protected]
Format settings : CABAC / 3 Ref Frames
Format settings, CABAC : Yes
Format settings, Reference frames : 3 frames
Codec ID : V_MPEG4/ISO/AVC
Duration : 1 h 17 min
Bit rate : 7 814 kb/s
Width : 1 920 pixels
Height : 1 080 pixels
Display aspect ratio : 16:9
Frame rate mode : Constant
Frame rate : 23.976 (24000/1001/189150) FPS
Color space : YUV
Chroma subsampling : 4:2:0
Bit depth : 8 bits
Scan type : Progressive
Bits/(Pixel*Frame) : 0.157
Stream size : 4.22 GiB (98%)
Writing library : x264 core 164 r3095 baee400
Encoding settings : cabac=1 / ref=3 / deblock=1:0:0 / analyse=0x3:0x113 / me=umh / subme=7 / psy=1 / psy_rd=0.00:0.00 / mixed_ref=1 / me_range=16 / chroma_me=1 / trellis=1 / 8x8dct=1 / cqm=0 / deadzone=21,11 / fast_pskip=1 / chroma_qp_offset=0 / threads=34 / lookahead_threads=5 / sliced_threads=0 / nr=0 / decimate=1 / interlaced=0 / bluray_compat=0 / constrained_intra=0 / bframes=2 / b_pyramid=0 / b_adapt=1 / b_bias=0 / direct=1 / weightb=1 / open_gop=0 / weightp=2 / keyint=48 / keyint_min=4 / scenecut=0 / intra_refresh=0 / rc_lookahead=48 / rc=2pass / mbtree=1 / bitrate=7814 / ratetol=1.0 / qcomp=0.60 / qpmin=10 / qpmax=51 / qpstep=4 / cplxblur=20.0 / qblur=0.5 / vbv_maxrate=11729 / vbv_bufsize=11729 / nal_hrd=none / filler=0 / ip_ratio=1.41 / aq=1:1.00
Default : Yes
Forced : No
Color range : Limited
Color primaries : BT.709
Transfer characteristics : BT.709
Matrix coefficients : BT.709

Audio
ID : 2
Format : E-AC-3
Format/Info : Enhanced AC-3
Commercial name : Dolby Digital Plus
Codec ID : A_EAC3
Duration : 1 h 17 min
Bit rate mode : Constant
Bit rate : 192 kb/s
Channel(s) : 6 channels
Channel layout : L R C LFE Ls Rs
Sampling rate : 48.0 kHz
Frame rate : 31.250 FPS (1536 SPF)
Compression mode : Lossy
Stream size : 106 MiB (2%)
Language : English
Service kind : Complete Main
Default : Yes
Forced : No

Text #1
ID : 3
Format : UTF-8
Codec ID : S_TEXT/UTF8
Codec ID/Info : UTF-8 Plain Text
Duration : 1 h 10 min
Bit rate : 53 b/s
Frame rate : 0.209 FPS
Count of elements : 886
Stream size : 28.0 KiB (0%)
Language : English
Default : No
Forced : No

Text #2
ID : 4
Format : UTF-8
Codec ID : S_TEXT/UTF8
Codec ID/Info : UTF-8 Plain Text
Duration : 1 h 12 min
Bit rate : 56 b/s
Frame rate : 0.235 FPS
Count of elements : 1024
Stream size : 30.3 KiB (0%)
Title : SDH
Language : English
Default : No
Forced : No





1 个附件 售价 大小 下载 时间

Barbie.in.a.Mermaid.Tale.2010.1080p.PCOK.WEBRip.DDP5.1.x264-SiGLA.torrent 0 金币 22.27K 630 次 2月前

#1楼
发帖时间:2022-12-03 23:30:03   |   回复数:0
游客组