travismk
一代宗师

[2017] [欧美] [剧情] [WEB-1080P] 生日快乐,托比•辛普森 Happy.Birthday.Toby.Simpson.2017.1080p.AMZN.WEBRip.DDP2.0.

-->

帖子完整标题:生日快乐,托比•辛普森 Happy.Birthday.Toby.Simpson.2017.1080p.AMZN.WEBRip.DDP2.0.x264-SiGLA 5.51GB



◎标  题 生日快乐,托比•辛普森
◎译  名 宅男也疯狂
◎片  名 Happy Birthday, Toby Simpson
◎年  代 2017
◎产  地 英国
◎类  别 剧情 / 喜剧 / 爱情
◎语  言 英语
◎上映日期 2017-05-13(英国)
◎IMDb评分 6.2/10 (248人评价)
◎IMDb链接 https://www.imdb.com/title/tt3950032/
◎豆瓣链接 https://movie.douban.com/subject/27188026/
◎片  长 82分钟
◎导  演 帕特里克·马金 Patrick Makin
◎编  剧 帕特里克·马金 Patrick Makin

◎简  介
  托比·辛普森人到中年,每天的生活被无理取闹的女友和控制欲极强的父亲支配着。他做着不喜欢的工作,收着不喜欢的生日礼物,过着不喜欢的生活,但为了让别人高兴,他只能强颜欢笑。
直到他在生日那天遇到了芳香治疗师勒娜特·赫拉瓦切克。托比的钱包被偷,勒娜特声称自己看到小偷去参加音乐节了。托比无奈改变计划,随勒娜特一起去音乐节上寻找小偷。起初,穿着西装的托比遭到了其他人的排斥,他自己也拒绝融入到音乐节的氛围中去。
勒娜特的一番话唤醒了托比心中被禁锢的自我,他开始享受音乐节带来的无限乐趣,并发现自己坠入情网,爱上了自由洒脱的勒娜特。当托比沉醉在从未体验过的甜蜜中时,他发现勒娜特第二天就会离开,原来自己眼中的真爱不过是一场露水情缘……

Video
ID : 1
Format : AVC
Format/Info : Advanced Video Codec
Format profile : [email protected]
Format settings : CABAC / 4 Ref Frames
Format settings, CABAC : Yes
Format settings, Reference frames : 4 frames
Codec ID : V_MPEG4/ISO/AVC
Duration : 1 h 21 min
Bit rate mode : Constant
Bit rate : 9 438 kb/s
Nominal bit rate : 10 000 kb/s
Width : 1 920 pixels
Height : 1 080 pixels
Display aspect ratio : 16:9
Frame rate mode : Constant
Frame rate : 24.000 FPS
Color space : YUV
Chroma subsampling : 4:2:0
Bit depth : 8 bits
Scan type : Progressive
Bits/(Pixel*Frame) : 0.190
Stream size : 5.38 GiB (98%)
Default : Yes
Forced : No
Color range : Limited
Color primaries : BT.709
Transfer characteristics : BT.709
Matrix coefficients : BT.709

Audio
ID : 2
Format : E-AC-3
Format/Info : Enhanced AC-3
Commercial name : Dolby Digital Plus
Codec ID : A_EAC3
Duration : 1 h 21 min
Bit rate mode : Constant
Bit rate : 224 kb/s
Channel(s) : 2 channels
Channel layout : L R
Sampling rate : 48.0 kHz
Frame rate : 31.250 FPS (1536 SPF)
Compression mode : Lossy
Stream size : 131 MiB (2%)
Language : English
Service kind : Complete Main
Default : Yes
Forced : No

Text #1
ID : 3
Format : UTF-8
Codec ID : S_TEXT/UTF8
Codec ID/Info : UTF-8 Plain Text
Duration : 1 h 16 min
Bit rate : 50 b/s
Frame rate : 0.222 FPS
Count of elements : 1027
Stream size : 28.4 KiB (0%)
Language : English
Default : No
Forced : No

Text #2
ID : 4
Format : UTF-8
Codec ID : S_TEXT/UTF8
Codec ID/Info : UTF-8 Plain Text
Duration : 1 h 17 min
Bit rate : 50 b/s
Frame rate : 0.225 FPS
Count of elements : 1045
Stream size : 28.9 KiB (0%)
Title : SDH
Language : English
Default : No
Forced : No





1 个附件 售价 大小 下载 时间

Happy.Birthday.Toby.Simpson.2017.1080p.AMZN.WEBRip.DDP2.0.x264-SiGLA.torrent 0 金币 14.42K 287 次 2月前

#1楼
发帖时间:2022-12-03 23:28:44   |   回复数:0
游客组