travismk
一代宗师

[2022] [其它] [动作] [WEB-1080P] 倚天屠龙记之圣火雄风 New.Kung.Fu.Cult.Master.2.2022.CHINESE.1080p.DSNP.WEBRip.DDP5.1.x264-

-->

帖子完整标题:倚天屠龙记之圣火雄风 New.Kung.Fu.Cult.Master.2.2022.CHINESE.1080p.DSNP.WEBRip.DDP5.1.x264-NOGRP 5.37GB



◎标  题 倚天屠龙记之圣火雄风
◎译  名 新倚天屠龙记下 / New Kung Fu Cult Master Ⅱ
◎年  代 2022
◎产  地 中国大陆 / 中国香港
◎类  别 动作 / 武侠 / 古装
◎语  言 汉语普通话 / 粤语
◎上映日期 2022-02-03(中国大陆网络)
◎IMDb链接 https://www.imdb.com/title//
◎豆瓣评分 3.8/10 (17301人评价)
◎豆瓣链接 https://movie.douban.com/subject/35725825/
◎片  长 113分钟
◎导  演 王晶 Jing Wong
      姜国民 Kwok-Man Keung
◎编  剧 王晶 Jing Wong
      金庸 Louis Cha
◎演  员 林峯 Raymond Lam
      文咏珊 Janice Man
      云千千 QianQian Yun
      邱意浓 Sabrina Qiu
      徐锦江 Elvis Tsui
      方中信 Alex Fong
      黄浩然 Raymond Wong Ho-Yin
      梁琤 Jade Leung
      林子聪 Tze Chung Lam
      骆应钧 Ying Kwan Lok
      陈紫函 Zihan Chen
      郭政鸿 Jing-hung Kwok
      田启文 Kai Man Tin
      张璇 Xuan Zhang
      刘浩龙 Wilfred Lau
      叶项明 Xiangming Ye
      桂晶晶 Jingjing Gui
      释彦能 Yanneng Shi

◎简  介
  本片讲述了武当派张无忌无意中卷入屠龙刀而起的江湖纷争之中,他为救武林高手前去捉拿赵敏,历经千辛万苦,最终归隐江湖的故事。

Video
ID : 1
Format : AVC
Format/Info : Advanced Video Codec
Format profile : [email protected]
Format settings : CABAC / 4 Ref Frames
Format settings, CABAC : Yes
Format settings, Reference frames : 4 frames
Codec ID : V_MPEG4/ISO/AVC
Duration : 1 h 52 min
Bit rate mode : Variable
Bit rate : 6 551 kb/s
Maximum bit rate : 12.7 Mb/s
Width : 1 920 pixels
Height : 1 080 pixels
Display aspect ratio : 16:9
Frame rate mode : Constant
Frame rate : 24.000 FPS
Color space : YUV
Chroma subsampling : 4:2:0
Bit depth : 8 bits
Scan type : Progressive
Bits/(Pixel*Frame) : 0.132
Stream size : 5.16 GiB (96%)
Language : English
Default : Yes
Forced : No
Color range : Limited
Color primaries : BT.709
Transfer characteristics : BT.709
Matrix coefficients : BT.709

Audio
ID : 2
Format : E-AC-3
Format/Info : Enhanced AC-3
Commercial name : Dolby Digital Plus
Codec ID : A_EAC3
Duration : 1 h 52 min
Bit rate mode : Constant
Bit rate : 256 kb/s
Channel(s) : 6 channels
Channel layout : L R C LFE Ls Rs
Sampling rate : 48.0 kHz
Frame rate : 31.250 FPS (1536 SPF)
Compression mode : Lossy
Stream size : 207 MiB (4%)
Title : Cantonese
Language : Chinese
Service kind : Complete Main
Default : No
Forced : No

Text #1
ID : 3
Format : UTF-8
Codec ID : S_TEXT/UTF8
Codec ID/Info : UTF-8 Plain Text
Duration : 1 h 44 min
Bit rate : 51 b/s
Frame rate : 0.241 FPS
Count of elements : 1508
Stream size : 39.1 KiB (0%)
Title : English
Language : English
Default : Yes
Forced : No

Text #2
ID : 4
Format : UTF-8
Codec ID : S_TEXT/UTF8
Codec ID/Info : UTF-8 Plain Text
Duration : 1 h 50 min
Bit rate : 37 b/s
Frame rate : 0.224 FPS
Count of elements : 1487
Stream size : 30.1 KiB (0%)
Title : 中文 (简体)
Language : Chinese
Default : No
Forced : No

Text #3
ID : 5
Format : UTF-8
Codec ID : S_TEXT/UTF8
Codec ID/Info : UTF-8 Plain Text
Duration : 1 h 44 min
Bit rate : 36 b/s
Frame rate : 0.254 FPS
Count of elements : 1586
Stream size : 28.1 KiB (0%)
Title : 中文 (繁體,中國香港特別行政區)
Language : Chinese
Default : No
Forced : No

Text #4
ID : 6
Format : UTF-8
Codec ID : S_TEXT/UTF8
Codec ID/Info : UTF-8 Plain Text
Duration : 1 h 50 min
Bit rate : 37 b/s
Frame rate : 0.224 FPS
Count of elements : 1487
Stream size : 30.1 KiB (0%)
Title : 中文 (繁體)
Language : Chinese
Default : No
Forced : No





1 个附件 售价 大小 下载 时间

New.Kung.Fu.Cult.Master.2.2022.CHINESE.1080p.DSNP.WEBRip.DDP5.1.x264-NOGRP.torrent 0 金币 14.10K 3374 次 2月前

#1楼
发帖时间:2022-12-03 23:28:29   |   回复数:0
游客组