travismk
一代宗师

[更 早] [欧美] [剧情] [BD-720P] 看破黑夜 Night.Has.a.Thousand.Eyes.1948.720p.BluRay.x264-USURY 5.30GB

-->

帖子完整标题:看破黑夜 Night.Has.a.Thousand.Eyes.1948.720p.BluRay.x264-USURY 5.30GB



◎标  题 看破黑夜
◎译  名 鬼谷先生
◎片  名 Night Has a Thousand Eyes
◎年  代 1948
◎产  地 美国
◎类  别 剧情 / 黑色电影
◎语  言 英语
◎上映日期 1948-10-13
◎IMDb评分 7/10 (1338人评价)
◎IMDb链接 https://www.imdb.com/title/tt0040643/
◎豆瓣链接 https://movie.douban.com/subject/2107988/
◎片  长 81 分钟
◎导  演 约翰·法罗 John Farrow
◎编  剧 巴雷·林登 Barré Lyndon
      乔纳森·拉蒂梅尔 Jonathan Latimer
      康奈尔·伍尔里奇 Cornell Woolrich
◎演  员 爱德华·罗宾逊 Edward G. Robinson
      盖尔·拉塞尔 Gail Russell
      约翰·伦德 John Lund
      弗吉尼亚·布鲁斯 Virginia Bruce
      威廉·德马雷斯特 William Demarest
      理查德·韦伯 Richard Webb
      杰罗姆·柯万 Jerome Cowan
      翁斯洛·史蒂文斯 Onslow Stevens
      约翰·亚历山大 John Alexander
      Roman Bohnen Roman Bohnen
      路易斯范龙腾 Luis Van Rooten
      Henry Guttman Henry Guttman
      Mary Adams Mary Adams
      道格拉斯·斯宾塞 Douglas Spencer
      多萝西·阿伯特 Dorothy Abbott
      Harry Allen Harry Allen
      格拉迪丝·布莱克 Gladys Blake
      简·克劳利 Jane Crowley
      Lester Dorr Lester Dorr
      Jim Drum Jim Drum
      吉米·邓迪 Jimmie Dundee
      Edward Earle Edward Earle
      茱莉亚·法耶 Julia Faye
      玛格丽特·菲尔德 Margaret Field
      Antonio Filauri Antonio Filauri
      帕特·弗莱厄蒂 Pat Flaherty
      William Haade William Haade
      弗兰克·哈格尼 Frank Hagney
      山姆·哈里斯 Sam Harris
      斯图尔特·霍姆斯 Stuart Holmes
      Jerry James Jerry James
      Jean King Jean King
      Lyle Latell Lyle Latell
      Frances Morris Frances Morris
      乔吉·努克斯 Georgie Nokes
      Albert Pollet Albert Pollet
      Renee Randall Renee Randall
      Joey Ray Joey Ray
      宝拉·雷蒙德 Paula Raymond
      Russell Saunders Russell Saunders
      John Sheehan John Sheehan
      Robert R. Stephenson Robert R. Stephenson
      阿姆齐·斯特里克兰 Amzie Strickland
      Harland Tucker Harland Tucker
      米内尔娃·尤雷卡尔 Minerva Urecal
      Philip Van Zandt Philip Van Zandt
      Eleanore Vogel Eleanore Vogel
      Regina Wallace Regina Wallace
      安德烈·博希姆 Endre Bohem
      维克多·杨 Victor Young
      约翰·F·塞茨 John F. Seitz
      Eda Warren Eda Warren
      萨姆·库默 Sam Comer
      弗兰兹·巴彻林 Franz Bachelin
      雷·莫耶 Ray Moyer
      汉斯·德雷尔 Hans Dreier
      伊迪丝·海德 Edith Head
      沃利·韦斯特摩 Wally Westmore
      赫伯特·科尔曼 Herbert Coleman

◎简  介
  When phony stage mentalist Triton mysteriously acquires supernatural powers of precognition, he becomes frightened and abandons his act to live of anonymity.

Video
ID : 1
Format : AVC
Format/Info : Advanced Video Codec
Format profile : [email protected]
Format settings : CABAC / 11 Ref Frames
Format settings, CABAC : Yes
Format settings, Reference frames : 11 frames
Codec ID : V_MPEG4/ISO/AVC
Duration : 1 h 20 min
Bit rate : 8 689 kb/s
Width : 990 pixels
Height : 720 pixels
Display aspect ratio : 1.375
Frame rate mode : Constant
Frame rate : 23.976 (24000/1001/189150) FPS
Color space : YUV
Chroma subsampling : 4:2:0
Bit depth : 8 bits
Scan type : Progressive
Bits/(Pixel*Frame) : 0.508
Stream size : 4.91 GiB (93%)
Writing library : x264 core 164 r3101 b093bbe
Encoding settings : cabac=1 / ref=11 / deblock=1:-3:-3 / analyse=0x3:0x133 / me=umh / subme=10 / psy=1 / psy_rd=1.00:0.15 / mixed_ref=1 / me_range=24 / chroma_me=1 / trellis=2 / 8x8dct=1 / cqm=0 / deadzone=21,11 / fast_pskip=1 / chroma_qp_offset=-3 / threads=18 / lookahead_threads=3 / sliced_threads=0 / nr=0 / decimate=1 / interlaced=0 / bluray_compat=0 / constrained_intra=0 / bframes=8 / b_pyramid=2 / b_adapt=2 / b_bias=0 / direct=3 / weightb=1 / open_gop=0 / weightp=2 / keyint=250 / keyint_min=23 / scenecut=40 / intra_refresh=0 / rc_lookahead=60 / rc=crf / mbtree=1 / crf=17.0 / qcomp=0.60 / qpmin=0 / qpmax=69 / qpstep=4 / ip_ratio=1.40 / aq=3:0.50
Language : English
Default : Yes
Forced : No
Color range : Limited
Matrix coefficients : BT.709

Audio #1
ID : 2
Format : FLAC
Format/Info : Free Lossless Audio Codec
Codec ID : A_FLAC
Duration : 1 h 20 min
Bit rate mode : Variable
Bit rate : 569 kb/s
Channel(s) : 2 channels
Channel layout : L R
Sampling rate : 48.0 kHz
Frame rate : 11.719 FPS (4096 SPF)
Bit depth : 24 bits
Compression mode : Lossless
Stream size : 329 MiB (6%)
Writing library : libFLAC 1.2.1 (UTC 2007-09-17)
Language : English
Default : Yes
Forced : No

Audio #2
ID : 3
Format : AAC LC
Format/Info : Advanced Audio Codec Low Complexity
Codec ID : A_AAC-2
Duration : 1 h 20 min
Bit rate : 90.1 kb/s
Channel(s) : 2 channels
Channel layout : L R
Sampling rate : 48.0 kHz
Frame rate : 46.875 FPS (1024 SPF)
Compression mode : Lossy
Delay relative to video : 9 ms
Stream size : 52.1 MiB (1%)
Title : English Commentary by Imogen Sara Smith
Language : English
Default : No
Forced : No

Text #1
ID : 4
Format : UTF-8
Codec ID : S_TEXT/UTF8
Codec ID/Info : UTF-8 Plain Text
Duration : 1 h 17 min
Bit rate : 95 b/s
Count of elements : 1427
Stream size : 53.9 KiB (0%)
Title : English
Language : English
Default : No
Forced : No

Text #2
ID : 5
Format : PGS
Muxing mode : zlib
Codec ID : S_HDMV/PGS
Codec ID/Info : Picture based subtitle format used on BDs/HD-DVDs
Duration : 1 h 17 min
Bit rate : 27.7 kb/s
Count of elements : 2854
Stream size : 15.4 MiB (0%)
Title : English
Language : English
Default : No
Forced : No

Menu
00:00:00.000 : en:00:00:00.000
00:04:52.042 : en:00:04:52.042
00:15:11.953 : en:00:15:11.953
00:23:06.176 : en:00:23:06.176
00:34:33.822 : en:00:34:33.822
00:46:19.527 : en:00:46:19.527
01:01:45.994 : en:01:01:45.994
01:13:06.674 : en:01:13:06.674





1 个附件 售价 大小 下载 时间

Night.Has.a.Thousand.Eyes.1948.720p.BluRay.x264-USURY.torrent 0 金币 14.01K 259 次 2月前

#1楼
发帖时间:2022-12-03 22:57:00   |   回复数:0
游客组