travismk
一代宗师

[更 早] [其它] [喜剧] [BD-1080P] 警察故事3:超级警察 Police.Story.3.Supercop.1992.Export.Cut.1080p.BluRay.x264-USURY 5.36G

-->

帖子完整标题:警察故事3:超级警察 Police.Story.3.Supercop.1992.Export.Cut.1080p.BluRay.x264-USURY 5.36GB



◎标  题 警察故事3:超级警察
◎译  名 Police Story 3: Super Cop / Supercop
◎片  名 警察故事III超級警察
◎年  代 1992
◎产  地 中国香港
◎类  别 喜剧 / 动作 / 犯罪
◎语  言 粤语 / 英语 / 汉语普通话 / 马来语 / 泰语
◎上映日期 1992-07-04
◎IMDb评分 6.9/10 (20747人评价)
◎IMDb链接 https://www.imdb.com/title/tt0104558/
◎豆瓣评分 7.8/10 (54467人评价)
◎豆瓣链接 https://movie.douban.com/subject/1296203/
◎片  长 95分钟
◎导  演 唐季礼 Stanley Tong
◎编  剧 邓景生 Edward Tang
◎演  员 成龙 Jackie Chan
      杨紫琼 Michelle Yeoh
      张曼玉 Maggie Cheung
      曾江 Kenneth Tsang
      元华 Wah Yuen
      董骠 Bill Tung
      林富伟 Fu-wai Lam
      段伟伦 William Duan
      麦伟章 Wai Cheung Mak
      林志泰 Chi Tai Lam
      金佩恩 Kim Penn
      唐季礼 Stanley Tong
      罗烈 Lieh Lo
      顾美华 Josephine Koo
      沈威 Wai Shum
      王霄 Kelvin Wong
      陈欣健 Philip Chan
      卢惠光 Ken Lo
      邓景生 Edward Tang
      陈自强 Willie Chan
      何冠昌 Leonard Ho
      李宗盛 Jonathan Lee
      林国华 Ardy Lam
      黄文云 Wen Yun Huang
      张耀宗 Peter Cheung
      张嘉辉 Kar Fei Cheung
      黄锐民 Oliver Wong
      卢瑞莲 Sui Lin Lo
      陈文清 Man-Ching Chan
      麦伟章 Wai Cheung Mak

◎标  签 成龙 / 动作 / 香港 / 香港电影 / 杨紫琼 / 张曼玉 / 喜剧 / 警匪

◎简  介
  这集,神勇干探陈家驹(成龙 饰)将远赴大陆,化身囚犯打入国际军火毒品走私集团的内部。在大陆美女公安杨建华(杨紫琼 饰)的帮助下,家驹顺利接近了正在服刑的集团成员豹强(元华 饰)。豹强视家驹为心腹,和他策划越狱行动。为了放长线,家驹爽快应承了。
他们越狱后,豹强主张到家驹随口编出来的家乡躲避,幸得杨建华提前安排,才没有漏出马脚,杨建华自称家驹妹妹,与他们同行。他们来到香港见到了集团的老大猜霸,顺利成为集团的一员。猜霸带着手下前往吉隆坡营救被绑架的妻子,遇到了家驹的女友阿美(张曼玉 饰)。阿美不知家驹正在执行任务,以为他和杨建华在偷情。阿美的举动引起了集团成员的怀疑,连场大战一触即发!

Video
ID : 1
Format : AVC
Format/Info : Advanced Video Codec
Format profile : [email protected]
Format settings : CABAC / 5 Ref Frames
Format settings, CABAC : Yes
Format settings, Reference frames : 5 frames
Codec ID : V_MPEG4/ISO/AVC
Duration : 1 h 31 min
Bit rate : 7 766 kb/s
Width : 1 920 pixels
Height : 818 pixels
Display aspect ratio : 2.35:1
Frame rate mode : Constant
Frame rate : 23.976 (24000/1001/189150) FPS
Color space : YUV
Chroma subsampling : 4:2:0
Bit depth : 8 bits
Scan type : Progressive
Bits/(Pixel*Frame) : 0.206
Stream size : 4.95 GiB (92%)
Writing library : x264 core 164 r3101 b093bbe
Encoding settings : cabac=1 / ref=5 / deblock=1:-3:-3 / analyse=0x3:0x133 / me=umh / subme=10 / psy=1 / psy_rd=1.00:0.15 / mixed_ref=1 / me_range=24 / chroma_me=1 / trellis=2 / 8x8dct=1 / cqm=0 / deadzone=21,11 / fast_pskip=1 / chroma_qp_offset=-3 / threads=18 / lookahead_threads=3 / sliced_threads=0 / nr=0 / decimate=1 / interlaced=0 / bluray_compat=0 / constrained_intra=0 / bframes=8 / b_pyramid=2 / b_adapt=2 / b_bias=0 / direct=3 / weightb=1 / open_gop=0 / weightp=2 / keyint=250 / keyint_min=23 / scenecut=40 / intra_refresh=0 / rc_lookahead=60 / rc=crf / mbtree=1 / crf=22.5 / qcomp=0.60 / qpmin=0 / qpmax=69 / qpstep=4 / ip_ratio=1.40 / aq=3:0.50
Language : English
Default : Yes
Forced : No
Color range : Limited
Matrix coefficients : BT.709

Audio #1
ID : 2
Format : AC-3
Format/Info : Audio Coding 3
Commercial name : Dolby Digital
Codec ID : A_AC3
Duration : 1 h 31 min
Bit rate mode : Constant
Bit rate : 192 kb/s
Channel(s) : 1 channel
Channel layout : C
Sampling rate : 48.0 kHz
Frame rate : 31.250 FPS (1536 SPF)
Compression mode : Lossy
Stream size : 125 MiB (2%)
Title : Cantonese
Language : Chinese
Service kind : Complete Main
Default : Yes
Forced : No

Audio #2
ID : 3
Format : AC-3
Format/Info : Audio Coding 3
Commercial name : Dolby Digital
Codec ID : A_AC3
Duration : 1 h 31 min
Bit rate mode : Constant
Bit rate : 448 kb/s
Channel(s) : 6 channels
Channel layout : L R C LFE Ls Rs
Sampling rate : 48.0 kHz
Frame rate : 31.250 FPS (1536 SPF)
Compression mode : Lossy
Stream size : 292 MiB (5%)
Title : English
Language : English
Service kind : Complete Main
Default : No
Forced : No

Text #1
ID : 4
Format : UTF-8
Codec ID : S_TEXT/UTF8
Codec ID/Info : UTF-8 Plain Text
Duration : 1 h 26 min
Bit rate : 47 b/s
Count of elements : 1038
Stream size : 30.1 KiB (0%)
Title : English
Language : English
Default : Yes
Forced : Yes

Text #2
ID : 5
Format : PGS
Muxing mode : zlib
Codec ID : S_HDMV/PGS
Codec ID/Info : Picture based subtitle format used on BDs/HD-DVDs
Duration : 1 h 28 min
Bit rate : 10.9 kb/s
Count of elements : 2078
Stream size : 6.92 MiB (0%)
Title : English
Language : English
Default : No
Forced : No

Menu
00:00:00.000 : en:00:00:00.000
00:07:10.764 : en:00:07:10.764
00:17:12.740 : en:00:17:12.740
00:27:48.166 : en:00:27:48.166
00:33:30.550 : en:00:33:30.550
00:43:38.407 : en:00:43:38.407
00:51:54.153 : en:00:51:54.153
00:58:26.002 : en:00:58:26.002
01:08:42.744 : en:01:08:42.744
01:19:01.570 : en:01:19:01.570





1 个附件 售价 大小 下载 时间

Police.Story.3.Supercop.1992.Export.Cut.1080p.BluRay.x264-USURY.torrent 0 金币 14.21K 714 次 2月前

#1楼
发帖时间:2022-12-03 22:53:29   |   回复数:1
liyouchai
隐世仙人♂
谢谢楼主分享资源
2月前 #2楼
游客组