travismk
一代宗师

[2021] [其它] [剧情] [BD-1080P] 活在当下 Zero.Fucks.Given.2021.1080p.BluRay.x264-USURY 12.26GB

-->

帖子完整标题:活在当下 Zero.Fucks.Given.2021.1080p.BluRay.x264-USURY 12.26GB



◎标  题 活在当下
◎译  名 Carpe Diem / Zero Fucks Given / 空姐没有昨天(台)
◎片  名 Rien à foutre
◎年  代 2021
◎产  地 法国 / 比利时
◎类  别 剧情 / 喜剧
◎语  言 法语 / 英语
◎上映日期 2021-07-11(戛纳电影节) / 2022-03-02(法国)
◎IMDb评分 6.4/10 (1014人评价)
◎IMDb链接 https://www.imdb.com/title/tt13482806/
◎豆瓣评分 7.2/10 (230人评价)
◎豆瓣链接 https://movie.douban.com/subject/34966363/
◎片  长 112分钟
◎导  演 伊曼努尔·马雷 Emmanuel Marre
◎编  剧 伊曼努尔·马雷 Emmanuel Marre
◎演  员 阿黛尔·艾克萨勒霍布洛斯 Adèle Exarchopoulos
      让-本笃·尤格斯 Jean-Benoît Ugeux
      Jonathan Sawdon Jonathan Sawdon

◎简  介
  阿黛尔·艾克萨勒霍布洛斯将主演伊曼努尔·马雷执导的长片处女作[活在当下](Carpe Diem,暂译)。26岁的卡桑德拉(艾克萨勒霍布洛斯饰)是一家廉价航空公司工作的空姐。每次飞行,她都只住一天,飞行后都会参加聚会,并不关心明天的到来。她的Tinder简介也正是“活在当下”。

Video
ID : 1
Format : AVC
Format/Info : Advanced Video Codec
Format profile : [email protected]
Format settings : CABAC / 4 Ref Frames
Format settings, CABAC : Yes
Format settings, Reference frames : 4 frames
Codec ID : V_MPEG4/ISO/AVC
Duration : 1 h 55 min
Bit rate : 11.0 Mb/s
Width : 1 728 pixels
Height : 1 080 pixels
Display aspect ratio : 16:10
Frame rate mode : Constant
Frame rate : 23.976 (24000/1001/189150) FPS
Color space : YUV
Chroma subsampling : 4:2:0
Bit depth : 8 bits
Scan type : Progressive
Bits/(Pixel*Frame) : 0.245
Stream size : 8.85 GiB (72%)
Writing library : x264 core 164 r3101 b093bbe
Encoding settings : cabac=1 / ref=4 / deblock=1:-3:-3 / analyse=0x3:0x133 / me=umh / subme=10 / psy=1 / psy_rd=1.00:0.15 / mixed_ref=1 / me_range=24 / chroma_me=1 / trellis=2 / 8x8dct=1 / cqm=0 / deadzone=21,11 / fast_pskip=1 / chroma_qp_offset=-3 / threads=18 / lookahead_threads=3 / sliced_threads=0 / nr=0 / decimate=1 / interlaced=0 / bluray_compat=0 / constrained_intra=0 / bframes=8 / b_pyramid=2 / b_adapt=2 / b_bias=0 / direct=3 / weightb=1 / open_gop=0 / weightp=2 / keyint=250 / keyint_min=23 / scenecut=40 / intra_refresh=0 / rc_lookahead=60 / rc=crf / mbtree=1 / crf=16.0 / qcomp=0.60 / qpmin=0 / qpmax=69 / qpstep=4 / ip_ratio=1.40 / aq=3:0.60
Language : English
Default : Yes
Forced : No
Color range : Limited
Matrix coefficients : BT.709

Audio
ID : 2
Format : DTS XLL
Format/Info : Digital Theater Systems
Commercial name : DTS-HD Master Audio
Codec ID : A_DTS
Duration : 1 h 55 min
Bit rate mode : Variable
Bit rate : 4 200 kb/s
Channel(s) : 6 channels
Channel layout : C L R Ls Rs LFE
Sampling rate : 48.0 kHz
Frame rate : 93.750 FPS (512 SPF)
Bit depth : 24 bits
Compression mode : Lossless
Stream size : 3.39 GiB (28%)
Language : English
Default : Yes
Forced : No

Text #1
ID : 3
Format : UTF-8
Codec ID : S_TEXT/UTF8
Codec ID/Info : UTF-8 Plain Text
Duration : 1 h 44 min
Bit rate : 29 b/s
Count of elements : 603
Stream size : 22.7 KiB (0%)
Title : English forced
Language : English
Default : Yes
Forced : Yes

Text #2
ID : 4
Format : UTF-8
Codec ID : S_TEXT/UTF8
Codec ID/Info : UTF-8 Plain Text
Duration : 1 h 47 min
Bit rate : 57 b/s
Count of elements : 1257
Stream size : 44.9 KiB (0%)
Title : English
Language : English
Default : No
Forced : No

Text #3
ID : 5
Format : UTF-8
Codec ID : S_TEXT/UTF8
Codec ID/Info : UTF-8 Plain Text
Duration : 1 h 47 min
Bit rate : 52 b/s
Count of elements : 1149
Stream size : 41.6 KiB (0%)
Title : Dutch
Language : Dutch
Default : No
Forced : No

Text #4
ID : 6
Format : UTF-8
Codec ID : S_TEXT/UTF8
Codec ID/Info : UTF-8 Plain Text
Duration : 1 h 51 min
Bit rate : 67 b/s
Count of elements : 1402
Stream size : 54.9 KiB (0%)
Title : German
Language : German
Default : No
Forced : No

Text #5
ID : 7
Format : PGS
Muxing mode : zlib
Codec ID : S_HDMV/PGS
Codec ID/Info : Picture based subtitle format used on BDs/HD-DVDs
Duration : 1 h 51 min
Bit rate : 18.5 kb/s
Count of elements : 2804
Stream size : 14.7 MiB (0%)
Title : German
Language : German
Default : No
Forced : No

Text #6
ID : 8
Format : UTF-8
Codec ID : S_TEXT/UTF8
Codec ID/Info : UTF-8 Plain Text
Duration : 1 h 47 min
Bit rate : 55 b/s
Count of elements : 1195
Stream size : 43.7 KiB (0%)
Title : Turkish
Language : Turkish
Default : No
Forced : No

Menu
00:00:00.000 : en:00:00:00.000
00:10:06.397 : en:00:10:06.397
00:19:20.743 : en:00:19:20.743
00:29:43.949 : en:00:29:43.949
00:39:42.797 : en:00:39:42.797
00:52:00.451 : en:00:52:00.451
01:01:28.059 : en:01:01:28.059
01:11:45.301 : en:01:11:45.301
01:22:11.510 : en:01:22:11.510
01:29:01.461 : en:01:29:01.461
01:43:19.777 : en:01:43:19.777
01:51:09.746 : en:01:51:09.746





1 个附件 售价 大小 下载 时间

Zero.Fucks.Given.2021.1080p.BluRay.x264-USURY.torrent 0 金币 16.06K 560 次 2月前

#1楼
发帖时间:2022-12-03 22:50:32   |   回复数:0
游客组