squallzhao
一代宗师

[更 早] [欧美] [剧情] [WEB-1080P] 艺人丽影 Me.And.My.Gal.1932.1080p.WEBRip.AAC2.0.x264-KUCHU 3.14GB

-->

帖子完整标题:艺人丽影 Me.And.My.Gal.1932.1080p.WEBRip.AAC2.0.x264-KUCHU 3.14GB



◎标  题 艺人丽影
◎片  名 Me and My Gal
◎年  代 1932
◎产  地 美国
◎类  别 剧情 / 喜剧 / 爱情
◎语  言 英语
◎上映日期 1932-12-04
◎IMDb评分 6.6/10 (1054人评价)
◎IMDb链接 https://www.imdb.com/title/tt0023202/
◎豆瓣链接 https://movie.douban.com/subject/2980753/
◎片  长 79 分钟
◎导  演 拉乌尔·沃尔什 Raoul Walsh
◎编  剧 艾尔弗雷德·A·科恩 Alfred A. Cohn
      Arthur Kober Arthur Kober
      查尔斯·维多 Charles Vidor
      巴里·康纳斯 Barry Conners
      菲利普·邓恩 Philip Dunne
      菲利普·克莱恩 Philip Klein
◎演  员 斯宾塞·屈塞 Spencer Tracy
      琼·贝内特 Joan Bennett
      J·法瑞尔·麦克唐纳 J. Farrell MacDonald
      罗杰·英霍夫 Roger Imhof
      詹姆斯·A·马库斯 James A. Marcus
      拉斯·鲍威尔 Russ Powell
      弗兰克·莫兰 Frank Moran
      Pat Moriarity Pat Moriarity
      阿德里安·莫里斯 Adrian Morris
      Phil Tead Phil Tead
      乔治·沃尔什 George Walsh
      Eleanor Wesselhoeft Eleanor Wesselhoeft
      Jesse De Vorska Jesse De Vorska
      Emmett Corrigan Emmett Corrigan
      诺尔·马蒂森 Noel Madison
      雷蒙德·沃伯恩 Raymond Walburn
      Will Stanton Will Stanton
      亨利·B·沃斯奥 Henry B. Walthall
      汉克·曼 Hank Mann
      伯特·汉伦 Bert Hanlon
      比利·贝文 Billy Bevan
      海尼·康克林 Heinie Conklin
      Marion Burns Marion Burns
      乔治·钱德勒 George Chandler
      Frank Atkinson Frank Atkinson
      亚瑟·C·米勒 Arthur C. Miller
      Jack Murray Jack Murray
      戈登·怀尔斯 Gordon Wiles
      Rita Kaufman Rita Kaufman
      Horace Hough Horace Hough

Video
ID : 1
Format : AVC
Format/Info : Advanced Video Codec
Format profile : [email protected]
Format settings : CABAC / 5 Ref Frames
Format settings, CABAC : Yes
Format settings, Reference frames : 5 frames
Codec ID : V_MPEG4/ISO/AVC
Duration : 1 h 19 min
Bit rate : 5 374 kb/s
Width : 1 480 pixels
Height : 1 080 pixels
Display aspect ratio : 1.370
Frame rate mode : Constant
Frame rate : 23.976 (24000/1001/189150) FPS
Color space : YUV
Chroma subsampling : 4:2:0
Bit depth : 8 bits
Scan type : Progressive
Bits/(Pixel*Frame) : 0.140
Stream size : 3.00 GiB (95%)
Writing library : x264 core 164 r10 7628a56
Encoding settings : cabac=1 / ref=5 / deblock=1:0:0 / analyse=0x3:0x113 / me=hex / subme=8 / psy=1 / psy_rd=1.00:0.00 / mixed_ref=1 / me_range=16 / chroma_me=1 / trellis=2 / 8x8dct=1 / cqm=0 / deadzone=21,11 / fast_pskip=1 / chroma_qp_offset=-2 / threads=34 / lookahead_threads=5 / sliced_threads=0 / nr=0 / decimate=1 / interlaced=0 / bluray_compat=0 / stitchable=1 / constrained_intra=0 / bframes=3 / b_pyramid=2 / b_adapt=2 / b_bias=0 / direct=3 / weightb=1 / open_gop=0 / weightp=2 / keyint=infinite / keyint_min=23 / scenecut=40 / intra_refresh=0 / rc_lookahead=50 / rc=crf / mbtree=1 / crf=20.0 / qcomp=0.60 / qpmin=5 / qpmax=69 / qpstep=4 / vbv_maxrate=5500 / vbv_bufsize=15000 / crf_max=0.0 / nal_hrd=none / filler=0 / ip_ratio=1.40 / aq=1:1.00
Default : Yes
Forced : No
Color range : Limited
Color primaries : BT.709
Transfer characteristics : BT.709
Matrix coefficients : BT.709

Audio
ID : 2
Format : AAC LC
Format/Info : Advanced Audio Codec Low Complexity
Codec ID : A_AAC-2
Duration : 1 h 19 min
Bit rate : 253 kb/s
Channel(s) : 2 channels
Channel layout : L R
Sampling rate : 48.0 kHz
Frame rate : 46.875 FPS (1024 SPF)
Compression mode : Lossy
Stream size : 145 MiB (5%)
Language : English
Default : Yes
Forced : No

Text
ID : 3
Format : UTF-8
Codec ID : S_TEXT/UTF8
Codec ID/Info : UTF-8 Plain Text
Duration : 1 h 19 min
Bit rate : 81 b/s
Frame rate : 0.301 FPS
Count of elements : 1441
Stream size : 47.4 KiB (0%)
Language : English
Default : Yes
Forced : No





1 个附件 售价 大小 下载 时间

Me.And.My.Gal.1932.1080p.WEBRip.AAC2.0.x264-KUCHU.torrent 0 金币 16.34K 357 次 2月前

#1楼
发帖时间:2022-12-03 22:20:37   |   回复数:0
游客组