squallzhao
一代宗师

[2019] [欧美] [其它] [BD-4K] 黑人商业教父 The.Black.Godfather.2019.2160p.NF.WEB-DL.x265.10bit.HDR.DDP5.1.Atmos-SiC

-->

帖子完整标题:黑人商业教父 The.Black.Godfather.2019.2160p.NF.WEB-DL.x265.10bit.HDR.DDP5.1.Atmos-SiC 13.27GB



◎标  题 黑人商业教父
◎译  名 黑人音乐教父
◎片  名 The Black Godfather
◎年  代 2019
◎产  地 美国
◎类  别 纪录片
◎语  言 英语
◎上映日期 2019-06-07(Netflix)
◎IMDb评分 7.4/10 (1275人评价)
◎IMDb链接 https://www.imdb.com/title/tt10289996/
◎豆瓣链接 https://movie.douban.com/subject/33414526/
◎片  长 118分钟

◎标  签 纪录片 / 传记 / 美国 / 音乐 / 2019 / 历史 / 美国电影 / 一星半

◎简  介
    几十年以来,世界上最知名的艺人、运动员和政治家在他们人生和职业生涯中最关键的时刻都向一个人寻求建议,包括格莱美奖®得主、名人堂成员、世界重量级拳击冠军和两位美国总统。此人就是克莱伦斯·埃文特。   《黑人音乐教父》讲述了埃文特非凡而传奇的成名历程,这位音乐界高层通过自己开创性的幕后成就打造出众多杰出人物,例如比尔·威瑟斯、昆西·琼斯、穆罕默德·阿里、汉克·阿伦,以及总统比尔·克林顿和巴拉克·奥巴马。   根深蒂固的种族主义已渗透到美国的每一个角落,在平等、忠诚和正义感的驱使下,埃文特摆脱南方的种族歧视制度,成为了一名出色的谈判专家。埃文特打破了人们对于黑人高管的概念,为有色人种艺人和高管重新定义娱乐圈,其利他主义的精神,也激励后人纷纷效仿。   《黑人音乐教父》由荣获奥斯卡金像奖®提名的雷吉纳·哈德林执导,采访了斯努普狗狗、吹牛老爹、莱昂内尔·里奇、苏珊娜·德帕塞、大卫·格芬、杰里·莫斯、赛西莉·泰森、吉米·詹姆、特里刘易斯和杰米·福克斯等人,本片聚焦于将整个职业生涯奉献给照耀他人的音乐教父,揭秘了这位大师的真实故事。

Video
ID : 1
Format : HEVC
Format/Info : High Efficiency Video Coding
Format profile : Main [email protected]@Main
HDR format : Dolby Vision, Version 1.0, dvhe.08.06, BL+RPU, HDR10 compatible / SMPTE ST 2086, HDR10 compatible
Codec ID : V_MPEGH/ISO/HEVC
Duration : 1 h 58 min
Bit rate : 15.0 Mb/s
Width : 3 840 pixels
Height : 2 160 pixels
Display aspect ratio : 16:9
Frame rate mode : Constant
Frame rate : 23.976 (24000/1001/189150) FPS
Color space : YUV
Chroma subsampling : 4:2:0 (Type 2)
Bit depth : 10 bits
Bits/(Pixel*Frame) : 0.075
Stream size : 12.4 GiB (93%)
Default : Yes
Forced : No
Color range : Limited
Color primaries : BT.2020
Transfer characteristics : PQ
Matrix coefficients : BT.2020 non-constant
Mastering display color primaries : Display P3
Mastering display luminance : min: 0.0001 cd/m2, max: 1000 cd/m2
Maximum Content Light Level : 1104 cd/m2
Maximum Frame-Average Light Level : 96 cd/m2

Audio
ID : 2
Format : E-AC-3 JOC
Format/Info : Enhanced AC-3 with Joint Object Coding
Commercial name : Dolby Digital Plus with Dolby Atmos
Codec ID : A_EAC3
Duration : 1 h 58 min
Bit rate mode : Constant
Bit rate : 768 kb/s
Channel(s) : 6 channels
Channel layout : L R C LFE Ls Rs
Sampling rate : 48.0 kHz
Frame rate : 31.250 FPS (1536 SPF)
Compression mode : Lossy
Stream size : 649 MiB (5%)
Language : English
Service kind : Complete Main
Default : Yes
Forced : No
Complexity index : 16
Number of dynamic objects : 15
Bed channel count : 1 channel
Bed channel configuration : LFE

Text #1
ID : 3
Format : UTF-8
Codec ID : S_TEXT/UTF8
Codec ID/Info : UTF-8 Plain Text
Language : English
Default : No
Forced : No

Text #2
ID : 4
Format : UTF-8
Codec ID : S_TEXT/UTF8
Codec ID/Info : UTF-8 Plain Text
Title : SDH
Language : English
Default : No
Forced : No

Text #3
ID : 5
Format : UTF-8
Codec ID : S_TEXT/UTF8
Codec ID/Info : UTF-8 Plain Text
Language : Arabic
Default : No
Forced : No

Text #4
ID : 6
Format : UTF-8
Codec ID : S_TEXT/UTF8
Codec ID/Info : UTF-8 Plain Text
Title : Simplified
Language : Chinese
Default : No
Forced : No

Text #5
ID : 7
Format : UTF-8
Codec ID : S_TEXT/UTF8
Codec ID/Info : UTF-8 Plain Text
Title : Traditional
Language : Chinese
Default : No
Forced : No

Text #6
ID : 8
Format : UTF-8
Codec ID : S_TEXT/UTF8
Codec ID/Info : UTF-8 Plain Text
Language : Danish
Default : No
Forced : No

Text #7
ID : 9
Format : UTF-8
Codec ID : S_TEXT/UTF8
Codec ID/Info : UTF-8 Plain Text
Language : Dutch
Default : No
Forced : No

Text #8
ID : 10
Format : UTF-8
Codec ID : S_TEXT/UTF8
Codec ID/Info : UTF-8 Plain Text
Language : Finnish
Default : No
Forced : No

Text #9
ID : 11
Format : UTF-8
Codec ID : S_TEXT/UTF8
Codec ID/Info : UTF-8 Plain Text
Language : French
Default : No
Forced : No

Text #10
ID : 12
Format : UTF-8
Codec ID : S_TEXT/UTF8
Codec ID/Info : UTF-8 Plain Text
Language : German
Default : No
Forced : No

Text #11
ID : 13
Format : UTF-8
Codec ID : S_TEXT/UTF8
Codec ID/Info : UTF-8 Plain Text
Language : Greek
Default : No
Forced : No

Text #12
ID : 14
Format : UTF-8
Codec ID : S_TEXT/UTF8
Codec ID/Info : UTF-8 Plain Text
Language : Hebrew
Default : No
Forced : No

Text #13
ID : 15
Format : UTF-8
Codec ID : S_TEXT/UTF8
Codec ID/Info : UTF-8 Plain Text
Language : Indonesian
Default : No
Forced : No

Text #14
ID : 16
Format : UTF-8
Codec ID : S_TEXT/UTF8
Codec ID/Info : UTF-8 Plain Text
Language : Italian
Default : No
Forced : No

Text #15
ID : 17
Format : UTF-8
Codec ID : S_TEXT/UTF8
Codec ID/Info : UTF-8 Plain Text
Language : Japanese
Default : No
Forced : No

Text #16
ID : 18
Format : UTF-8
Codec ID : S_TEXT/UTF8
Codec ID/Info : UTF-8 Plain Text
Language : Korean
Default : No
Forced : No

Text #17
ID : 19
Format : UTF-8
Codec ID : S_TEXT/UTF8
Codec ID/Info : UTF-8 Plain Text
Language : Norwegian Bokmal
Default : No
Forced : No

Text #18
ID : 20
Format : UTF-8
Codec ID : S_TEXT/UTF8
Codec ID/Info : UTF-8 Plain Text
Language : Polish
Default : No
Forced : No

Text #19
ID : 21
Format : UTF-8
Codec ID : S_TEXT/UTF8
Codec ID/Info : UTF-8 Plain Text
Title : Brazilian
Language : Portuguese
Default : No
Forced : No

Text #20
ID : 22
Format : UTF-8
Codec ID : S_TEXT/UTF8
Codec ID/Info : UTF-8 Plain Text
Title : Iberian
Language : Portuguese
Default : No
Forced : No

Text #21
ID : 23
Format : UTF-8
Codec ID : S_TEXT/UTF8
Codec ID/Info : UTF-8 Plain Text
Language : Romanian
Default : No
Forced : No

Text #22
ID : 24
Format : UTF-8
Codec ID : S_TEXT/UTF8
Codec ID/Info : UTF-8 Plain Text
Language : Russian
Default : No
Forced : No

Text #23
ID : 25
Format : UTF-8
Codec ID : S_TEXT/UTF8
Codec ID/Info : UTF-8 Plain Text
Title : Castilian
Language : Spanish
Default : No
Forced : No

Text #24
ID : 26
Format : UTF-8
Codec ID : S_TEXT/UTF8
Codec ID/Info : UTF-8 Plain Text
Title : Latin American
Language : Spanish
Default : No
Forced : No

Text #25
ID : 27
Format : UTF-8
Codec ID : S_TEXT/UTF8
Codec ID/Info : UTF-8 Plain Text
Language : Swedish
Default : No
Forced : No

Text #26
ID : 28
Format : UTF-8
Codec ID : S_TEXT/UTF8
Codec ID/Info : UTF-8 Plain Text
Language : Thai
Default : No
Forced : No

Text #27
ID : 29
Format : UTF-8
Codec ID : S_TEXT/UTF8
Codec ID/Info : UTF-8 Plain Text
Language : Turkish
Default : No
Forced : No

Text #28
ID : 30
Format : UTF-8
Codec ID : S_TEXT/UTF8
Codec ID/Info : UTF-8 Plain Text
Language : Vietnamese
Default : No
Forced : No





1 个附件 售价 大小 下载 时间

The.Black.Godfather.2019.2160p.NF.WEB-DL.x265.10bit.HDR.DDP5.1.Atmos-SiC.torrent 0 金币 17.26K 378 次 2月前

#1楼
发帖时间:2022-12-03 19:54:44   |   回复数:0
游客组