squallzhao
一代宗师

[2022] [其它] [剧情] [BD-4K] 永恒的女儿 The.Eternal.Daughter.2022.2160p.WEB-DL.x265.10bit.SDR.DDP5.1-KBOX 14.49GB

-->

帖子完整标题:永恒的女儿 The.Eternal.Daughter.2022.2160p.WEB-DL.x265.10bit.SDR.DDP5.1-KBOX 14.49GB



◎标  题 永恒的女儿
◎片  名 The Eternal Daughter
◎年  代 2022
◎产  地 美国 / 英国
◎类  别 剧情 / 悬疑
◎语  言 英语
◎上映日期 2022-09-06(威尼斯电影节) / 2022-12-02(美国)
◎IMDb评分 6.8/10 (378人评价)
◎IMDb链接 https://www.imdb.com/title/tt13874422/
◎豆瓣评分 6.3/10 (133人评价)
◎豆瓣链接 https://movie.douban.com/subject/35332885/
◎片  长 96分钟
◎导  演 乔安娜·霍格 Joanna Hogg
◎编  剧 乔安娜·霍格 Joanna Hogg
◎演  员 蒂尔达·斯文顿 Tilda Swinton
      卡尔利-索菲娅·戴维斯 Carly-Sophia Davies
      津尼娅·戴维斯-库克 Zinnia Davies-Cooke
      奥古斯特·乔希 August Joshi
      路易斯 Louis
      约瑟夫·迈德尔 Joseph Mydell
      阿尔菲·桑凯-格林 Alfie Sankey-Green
      乔安娜·霍格 Joanna Hogg
      格蕾丝·斯内尔 Grace Snell

◎简  介
  蒂尔达·斯文顿的秘密主演新片曝光:她于疫情期间在威尔士拍摄了一部鬼故事片《永恒的女儿》(The Eternal Daughter),继《纪念品》后再次与导演乔安娜·霍格合作。
A24最新拿下该片全球版权,已拍完进入后期制作阶段,讲述一个中年女子与年迈母亲回到她们以前的家——一个旧日的大庄园,如今变成了一间空荡荡的酒店,充满神秘,母女俩将必须面对一些埋藏了很长时间的秘密。
该片演员阵容还包括约瑟夫·迈德尔、卡莉·戴维斯和阿尔菲·桑基·格林,由Element Pictures(《宠儿》《房间》)和JWH Films(《纪念品》)制作,BBC影业也加入,马丁·斯科塞斯担任执行制片人。

Video
ID : 1
Format : HEVC
Format/Info : High Efficiency Video Coding
Format profile : Main [email protected]@High
Codec ID : V_MPEGH/ISO/HEVC
Duration : 1 h 35 min
Bit rate : 20.9 Mb/s
Width : 3 596 pixels
Height : 2 156 pixels
Display aspect ratio : 5:3
Frame rate mode : Constant
Frame rate : 23.976 (24000/1001/189150) FPS
Color space : YUV
Chroma subsampling : 4:2:0
Bit depth : 10 bits
Bits/(Pixel*Frame) : 0.112
Stream size : 14.0 GiB (96%)
Default : Yes
Forced : No
Color range : Limited
Color primaries : BT.709
Transfer characteristics : BT.709
Matrix coefficients : BT.709

Audio
ID : 2
Format : E-AC-3 JOC
Format/Info : Enhanced AC-3 with Joint Object Coding
Commercial name : Dolby Digital Plus with Dolby Atmos
Codec ID : A_EAC3
Duration : 1 h 35 min
Bit rate mode : Constant
Bit rate : 768 kb/s
Channel(s) : 6 channels
Channel layout : L R C LFE Ls Rs
Sampling rate : 48.0 kHz
Frame rate : 31.250 FPS (1536 SPF)
Compression mode : Lossy
Stream size : 527 MiB (4%)
Title : British
Language : English
Service kind : Complete Main
Default : Yes
Forced : No
Complexity index : 16
Number of dynamic objects : 15
Bed channel count : 1 channel
Bed channel configuration : LFE

Text #1
ID : 3
Format : UTF-8
Codec ID : S_TEXT/UTF8
Codec ID/Info : UTF-8 Plain Text
Duration : 1 h 30 min
Bit rate : 45 b/s
Frame rate : 0.193 FPS
Count of elements : 1045
Stream size : 30.3 KiB (0%)
Title : English CC
Language : English
Default : No
Forced : No

Text #2
ID : 4
Format : UTF-8
Codec ID : S_TEXT/UTF8
Codec ID/Info : UTF-8 Plain Text
Duration : 1 h 29 min
Bit rate : 34 b/s
Frame rate : 0.147 FPS
Count of elements : 793
Stream size : 22.4 KiB (0%)
Title : Spanish Latin American
Language : Spanish
Default : No
Forced : No

Menu
00:00:00.000 : en:Chapter 01
00:10:13.405 : en:Chapter 02
00:20:17.342 : en:Chapter 03
00:29:59.674 : en:Chapter 04
00:39:46.011 : en:Chapter 05
00:49:27.175 : en:Chapter 06
00:59:39.954 : en:Chapter 07
01:09:11.735 : en:Chapter 08
01:20:38.797 : en:Chapter 09
01:31:29.572 : en:Chapter 10





1 个附件 售价 大小 下载 时间

The.Eternal.Daughter.2022.2160p.WEB-DL.x265.10bit.SDR.DDP5.1-KBOX.torrent 0 金币 18.83K 308 次 2月前

#1楼
发帖时间:2022-12-03 19:45:49   |   回复数:0
游客组