squallzhao
一代宗师

[2022] [欧美] [恐怖] [BD-4K] 约克女巫会 York.Witches.Society.2022.2160p.WEB-DL.x265.10bit.SDR.DD5.1-CM 7.56GB

-->

帖子完整标题:约克女巫会 York.Witches.Society.2022.2160p.WEB-DL.x265.10bit.SDR.DD5.1-CM 7.56GB



◎标  题 约克女巫会
◎译  名 York Witches Society
◎片  名 York Witches' Society
◎年  代 2022
◎产  地 英国
◎类  别 恐怖
◎语  言 英语
◎上映日期 2022-07-05(Galway Film Fleadh)
◎IMDb评分 3.3/10 (24人评价)
◎IMDb链接 https://www.imdb.com/title/tt14772558/
◎豆瓣链接 https://movie.douban.com/subject/36092386/
◎编  剧 菲利普·马丁内斯 Philippe Martinez

◎简  介
  Amber Gray catches the attention of an elite group of students during her first semester at university. During the initiation, Amber and the York Witches' Society unintentionally awaken an ancient evil that has been waiting to finish the job it started centuries earlier.

Video
ID : 1
Format : HEVC
Format/Info : High Efficiency Video Coding
Format profile : Main [email protected]@High
Codec ID : V_MPEGH/ISO/HEVC
Duration : 1 h 27 min
Bit rate : 11.9 Mb/s
Width : 3 832 pixels
Height : 1 596 pixels
Display aspect ratio : 2.40:1
Frame rate mode : Constant
Frame rate : 23.976 FPS
Color space : YUV
Chroma subsampling : 4:2:0
Bit depth : 10 bits
Bits/(Pixel*Frame) : 0.081
Stream size : 7.32 GiB (97%)
Language : English
Default : Yes
Forced : No
Color range : Limited
Color primaries : BT.709
Transfer characteristics : BT.709
Matrix coefficients : BT.709

Audio
ID : 2
Format : AC-3
Format/Info : Audio Coding 3
Commercial name : Dolby Digital
Codec ID : A_AC3
Duration : 1 h 27 min
Bit rate mode : Constant
Bit rate : 384 kb/s
Channel(s) : 6 channels
Channel layout : L R C LFE Ls Rs
Sampling rate : 48.0 kHz
Frame rate : 31.250 FPS (1536 SPF)
Compression mode : Lossy
Stream size : 242 MiB (3%)
Language : English
Service kind : Complete Main
Default : Yes
Forced : No

Text #1
ID : 3
Format : UTF-8
Codec ID : S_TEXT/UTF8
Codec ID/Info : UTF-8 Plain Text
Duration : 1 h 27 min
Bit rate : 57 b/s
Frame rate : 0.278 FPS
Count of elements : 1460
Stream size : 36.9 KiB (0%)
Title : SDH
Language : English
Default : No
Forced : No

Text #2
ID : 4
Format : UTF-8
Codec ID : S_TEXT/UTF8
Codec ID/Info : UTF-8 Plain Text
Duration : 1 h 25 min
Bit rate : 46 b/s
Frame rate : 0.214 FPS
Count of elements : 1103
Stream size : 29.4 KiB (0%)
Language : English
Default : No
Forced : No

Menu
00:00:00.000 : en:Chapter 01
00:04:35.775 : en:Chapter 02
00:16:37.580 : en:Chapter 03
00:28:34.089 : en:Chapter 04
00:38:21.676 : en:Chapter 05
00:48:18.064 : en:Chapter 06
00:58:04.609 : en:Chapter 07
01:13:15.562 : en:Chapter 08
01:24:25.607 : en:Chapter 09





1 个附件 售价 大小 下载 时间

York.Witches.Society.2022.2160p.WEB-DL.x265.10bit.SDR.DD5.1-CM.torrent 0 金币 19.54K 676 次 4天前

#1楼
发帖时间:2022-09-23 19:13:04   |   回复数:0
游客组