topgood
一代宗师

[2019] [欧美] [剧情] [WEB-720P] 空白 Blank.2022.720p.WEBRip.DD5.1.x264-CM 2.13GB

-->

帖子完整标题:空白 Blank.2022.720p.WEBRip.DD5.1.x264-CM 2.13GB



◎标  题 空白
◎译  名 智能裂缝 / 失控智能
◎片  名 Blank
◎年  代 2019
◎产  地 英国
◎类  别 剧情 / 科幻 / 惊悚
◎语  言 英语
◎IMDb评分 8/10 (18人评价)
◎IMDb链接 https://www.imdb.com/title/tt8290476/
◎豆瓣链接 https://movie.douban.com/subject/30446376/
◎演  员 蕾切尔·雪莉 Rachel Shelley
      海达·里德 Heida Reed
      韦恩·布莱迪 Wayne Brady
      安妮·库赛尔 Annie Cusselle
      杰米洛玛斯 Jamie Lomas
      巴斯卡尔·帕特尔 Bhasker Patel

◎简  介
  Sci-fi drama “Blank” has wrapped filming and is now in post-production, with a first-look image released of the lead actresses. The movie stars “L Word” and “Deep State” actress Rachel Shelley, and “Poldark’s” Heida Reed. The cast also features U.S. star Wayne Brady, whose credits include “The Bold and the Beautiful,” “Let’s Make a Deal” and “How I Met Your Mother.”
“Blank” see...

Video
ID : 1
Format : AVC
Format/Info : Advanced Video Codec
Format profile : [email protected]
Format settings : CABAC / 5 Ref Frames
Format settings, CABAC : Yes
Format settings, Reference frames : 5 frames
Codec ID : V_MPEG4/ISO/AVC
Duration : 1 h 34 min
Bit rate : 2 836 kb/s
Width : 1 472 pixels
Height : 624 pixels
Display aspect ratio : 2.35:1
Frame rate mode : Constant
Frame rate : 24.000 FPS
Color space : YUV
Chroma subsampling : 4:2:0
Bit depth : 8 bits
Scan type : Progressive
Bits/(Pixel*Frame) : 0.129
Stream size : 1.88 GiB (88%)
Language : English
Default : Yes
Forced : No
Color range : Limited
Color primaries : BT.709
Transfer characteristics : BT.709
Matrix coefficients : BT.709

Audio
ID : 2
Format : AC-3
Format/Info : Audio Coding 3
Commercial name : Dolby Digital
Codec ID : A_AC3
Duration : 1 h 34 min
Bit rate mode : Constant
Bit rate : 384 kb/s
Channel(s) : 6 channels
Channel layout : L R C LFE Ls Rs
Sampling rate : 48.0 kHz
Frame rate : 31.250 FPS (1536 SPF)
Compression mode : Lossy
Stream size : 260 MiB (12%)
Language : English
Service kind : Complete Main
Default : Yes
Forced : No

Text #1
ID : 3
Format : UTF-8
Codec ID : S_TEXT/UTF8
Codec ID/Info : UTF-8 Plain Text
Duration : 1 h 30 min
Bit rate : 36 b/s
Frame rate : 0.170 FPS
Count of elements : 919
Stream size : 24.0 KiB (0%)
Title : SDH
Language : English
Default : No
Forced : No

Text #2
ID : 4
Format : UTF-8
Codec ID : S_TEXT/UTF8
Codec ID/Info : UTF-8 Plain Text
Duration : 1 h 26 min
Bit rate : 35 b/s
Frame rate : 0.156 FPS
Count of elements : 806
Stream size : 22.2 KiB (0%)
Language : English
Default : No
Forced : No

Menu
00:00:00.000 : en:Chapter 01
00:23:38.000 : en:Chapter 02
00:39:36.000 : en:Chapter 03
01:01:45.000 : en:Chapter 04
01:19:40.000 : en:Chapter 05
01:31:06.000 : en:Chapter 06





1 个附件 售价 大小 下载 时间

Blank.2022.720p.WEBRip.DD5.1.x264-CM.torrent 0 金币 21.92K 371 次 4天前

#1楼
发帖时间:2022-09-23 18:14:20   |   回复数:0
游客组