topgood
一代宗师

[2022] [欧美] [剧情] [WEB-1080P] 嘻哈梦想 On.The.Come.Up.2022.1080p.WEBRip.x264-RARBG 2.21GB

-->

帖子完整标题:嘻哈梦想 On.The.Come.Up.2022.1080p.WEBRip.x264-RARBG 2.21GB



◎标  题 嘻哈梦想
◎片  名 On the Come Up
◎年  代 2022
◎产  地 美国
◎类  别 剧情 / 喜剧 / 音乐
◎语  言 英语
◎上映日期 2022-09-09(多伦多电影节) / 2022-09-23(美国网络)
◎IMDb评分 6.4/10 (59人评价)
◎IMDb链接 https://www.imdb.com/title/tt9783730/
◎豆瓣链接 https://movie.douban.com/subject/34970178/
◎片  长 115分钟
◎导  演 桑娜·莱瑟 Sanaa Lathan
◎编  剧 卡伊·耶贡 Kay Oyegun
      安吉·托马斯 Angie Thomas
◎演  员 桑娜·莱瑟 Sanaa Lathan
      达明·乔伊·伦道夫 Da'Vine Joy Randolph
      Lil Yachty Lil Yachty
      马索·曼恩 Method Man
      迈克·艾普斯 Mike Epps
      尼贾·布雷尼亚 Nijah Brenea
      库利·卡尔文 Cuyle Carvin
      凯莉·科林斯·林茨 Kelly Collins Lintz
      施奎塔·詹姆斯 Shiquita James
      杰克琳·怀特 Jaclyn White
      蒂姆·洛斯 Tim Ross
      布鲁诺·罗斯 Bruno Rose

◎简  介
  As the daughter of an underground hip-hop legend who died right before he hit big, Bri's got massive shoes to fill. But it's hard as she is labeled a hoodlum at school, and faces financial crisis after her mom loses her job. So Bri pours her anger and frustration into her first song, which goes viral, for all the wrong reasons. Bri soon finds herself at the center of a controve...

Video
ID : 1
Format : AVC
Format/Info : Advanced Video Codec
Format profile : [email protected]
Format settings : CABAC / 4 Ref Frames
Format settings, CABAC : Yes
Format settings, Reference frames : 4 frames
Codec ID : avc1
Codec ID/Info : Advanced Video Coding
Duration : 1 h 55 min
Bit rate : 2 500 kb/s
Width : 1 920 pixels
Height : 800 pixels
Display aspect ratio : 2.40:1
Frame rate mode : Constant
Frame rate : 24.000 FPS
Color space : YUV
Chroma subsampling : 4:2:0
Bit depth : 8 bits
Scan type : Progressive
Bits/(Pixel*Frame) : 0.068
Stream size : 2.02 GiB (92%)
Writing library : x264 core 152 r2851M ba24899
Encoding settings : cabac=1 / ref=4 / deblock=1:-1:-1 / analyse=0x3:0x113 / me=umh / subme=9 / psy=1 / psy_rd=1.00:0.15 / mixed_ref=1 / me_range=24 / chroma_me=1 / trellis=2 / 8x8dct=1 / cqm=0 / deadzone=21,11 / fast_pskip=1 / chroma_qp_offset=-3 / threads=16 / lookahead_threads=4 / sliced_threads=0 / nr=0 / decimate=1 / interlaced=0 / bluray_compat=0 / constrained_intra=0 / bframes=3 / b_pyramid=2 / b_adapt=2 / b_bias=0 / direct=3 / weightb=1 / open_gop=0 / weightp=2 / keyint=250 / keyint_min=25 / scenecut=40 / intra_refresh=0 / rc_lookahead=50 / rc=2pass / mbtree=1 / bitrate=2500 / ratetol=1.0 / qcomp=0.60 / qpmin=0 / qpmax=69 / qpstep=4 / cplxblur=20.0 / qblur=0.5 / vbv_maxrate=31250 / vbv_bufsize=31250 / nal_hrd=none / filler=0 / ip_ratio=1.40 / aq=3:1.00
Encoded date : UTC 2022-09-23 06:19:46
Tagged date : UTC 2022-09-23 06:19:46
Codec configuration box : avcC

Audio
ID : 2
Format : AAC LC
Format/Info : Advanced Audio Codec Low Complexity
Codec ID : mp4a-40-2
Duration : 1 h 55 min
Duration_LastFrame : -11 ms
Bit rate mode : Constant
Bit rate : 224 kb/s
Channel(s) : 6 channels
Channel layout : C L R Ls Rs LFE
Sampling rate : 48.0 kHz
Frame rate : 46.875 FPS (1024 SPF)
Compression mode : Lossy
Stream size : 186 MiB (8%)
Language : English
Default : Yes
Alternate group : 1
Encoded date : UTC 2022-09-23 06:19:46
Tagged date : UTC 2022-09-23 06:19:46





1 个附件 售价 大小 下载 时间

On.The.Come.Up.2022.1080p.WEBRip.x264-RARBG.torrent 0 金币 22.80K 252 次 4天前

#1楼
发帖时间:2022-09-23 18:03:09   |   回复数:0
游客组