topgood
一代宗师

[2022] [日本] [其它] [WEB-1080P] 宝可梦:被称为神的阿尔宙斯 Pokemon.The.Arceus.Chronicles.2022.DUBBED.1080p.WEBRip.x264-RARBG

-->

帖子完整标题:宝可梦:被称为神的阿尔宙斯 Pokemon.The.Arceus.Chronicles.2022.DUBBED.1080p.WEBRip.x264-RARBG 1.24GB



◎标  题 宝可梦:被称为神的阿尔宙斯
◎译  名 宝可梦旅途特别篇
◎片  名 ポケットモンスター 神とよばれし アルセウス
◎年  代 2022
◎产  地 日本
◎类  别 动画 / 冒险
◎语  言 日语
◎上映日期 2022-01-21(日本)
◎IMDb链接 https://www.imdb.com/title/tt21970564/
◎豆瓣评分 7.5/10 (138人评价)
◎豆瓣链接 https://movie.douban.com/subject/35705807/
◎片  长 17分钟
◎导  演 富安大贵 Tomiyasu Daiki
      浅田裕二 Asada Yuuji
      富冈淳广 Atsuhiro Tomioka
◎编  剧 富冈淳广 Atsuhiro Tomioka
◎演  员 松本梨香 Rica Matsumoto
      大谷育江 Ikue Ootani
      丰口惠美 Megumi Toyoguchi
      山下大辉 Daiki Yamashita
      上田祐司 Yûji Ueda
      坂田将吾 Shogo Sakata

◎简  介
  这部以新奥地区为舞台的特别篇,除了小智和小豪之外,以小光为首的令人怀念的伙伴们出场,策划着神秘计划的银河队、被称为神的宝可梦·阿尔宙斯也即将登场。

Video
ID : 1
Format : AVC
Format/Info : Advanced Video Codec
Format profile : [email protected]
Format settings : CABAC / 4 Ref Frames
Format settings, CABAC : Yes
Format settings, Reference frames : 4 frames
Codec ID : avc1
Codec ID/Info : Advanced Video Coding
Duration : 1 h 4 min
Bit rate : 2 500 kb/s
Width : 1 920 pixels
Height : 1 080 pixels
Display aspect ratio : 16:9
Frame rate mode : Constant
Frame rate : 23.976 (23976/1000/189150) FPS
Color space : YUV
Chroma subsampling : 4:2:0
Bit depth : 8 bits
Scan type : Progressive
Bits/(Pixel*Frame) : 0.050
Stream size : 1.13 GiB (92%)
Writing library : x264 core 152 r2851M ba24899
Encoding settings : cabac=1 / ref=4 / deblock=1:-1:-1 / analyse=0x3:0x113 / me=umh / subme=9 / psy=1 / psy_rd=1.00:0.15 / mixed_ref=1 / me_range=24 / chroma_me=1 / trellis=2 / 8x8dct=1 / cqm=0 / deadzone=21,11 / fast_pskip=1 / chroma_qp_offset=-3 / threads=16 / lookahead_threads=4 / sliced_threads=0 / nr=0 / decimate=1 / interlaced=0 / bluray_compat=0 / constrained_intra=0 / bframes=3 / b_pyramid=2 / b_adapt=2 / b_bias=0 / direct=3 / weightb=1 / open_gop=0 / weightp=2 / keyint=250 / keyint_min=25 / scenecut=40 / intra_refresh=0 / rc_lookahead=50 / rc=2pass / mbtree=1 / bitrate=2500 / ratetol=1.0 / qcomp=0.60 / qpmin=0 / qpmax=69 / qpstep=4 / cplxblur=20.0 / qblur=0.5 / vbv_maxrate=31250 / vbv_bufsize=31250 / nal_hrd=none / filler=0 / ip_ratio=1.40 / aq=3:1.00
Encoded date : UTC 2022-09-23 09:18:45
Tagged date : UTC 2022-09-23 09:18:45
Codec configuration box : avcC

Audio
ID : 2
Format : AAC LC
Format/Info : Advanced Audio Codec Low Complexity
Codec ID : mp4a-40-2
Duration : 1 h 4 min
Duration_LastFrame : -11 ms
Bit rate mode : Constant
Bit rate : 224 kb/s
Channel(s) : 2 channels
Channel layout : L R
Sampling rate : 48.0 kHz
Frame rate : 46.875 FPS (1024 SPF)
Compression mode : Lossy
Stream size : 104 MiB (8%)
Language : English
Default : Yes
Alternate group : 1
Encoded date : UTC 2022-09-23 09:18:45
Tagged date : UTC 2022-09-23 09:18:45





1 个附件 售价 大小 下载 时间

Pokemon.The.Arceus.Chronicles.2022.DUBBED.1080p.WEBRip.x264-RARBG.torrent 0 金币 14.20K 1148 次 4天前

#1楼
发帖时间:2022-09-23 17:47:40   |   回复数:0
游客组