travismk
一代宗师

[更 早] [其它] [剧情] [BD-1080P] 铁鹰战士3死亡陷阱 Aces.Iron.Eagle.III.1992.1080p.BluRay.x264-FREEMAN 13.06GB

-->

帖子完整标题:铁鹰战士3死亡陷阱 Aces.Iron.Eagle.III.1992.1080p.BluRay.x264-FREEMAN 13.06GB



◎标  题 铁鹰战士3死亡陷阱
◎译  名 铁鹰战士III死亡陷井
◎片  名 Aces: Iron Eagle III
◎年  代 1992
◎产  地 英国 / 美国
◎类  别 剧情 / 动作
◎语  言 英语
◎上映日期 1992-01-09
◎IMDb评分 3.7/10 (2911人评价)
◎IMDb链接 https://www.imdb.com/title/tt0103617/
◎豆瓣链接 https://movie.douban.com/subject/1294622/
◎片  长 98 分钟
◎导  演 约翰·格兰 John Glen
◎编  剧 西德尼·J·弗里尔 Sidney J. Furie
◎演  员 小路易斯·格赛特 Louis Gossett Jr.
      Rachel McLish Rachel McLish
      霍斯特·布赫霍尔茨 Horst Buchholz
      克里斯托弗·卡赞诺夫 Christopher Cazenove
      千叶真一 Sonny Chiba
      米奇·瑞恩 Mitch Ryan
      汤姆·鲍尔 Tom Bower
      Vicki Huff Vicki Huff
      罗伯·威尔逊·金 Robb Wilson King
      詹姆斯·弗雷塔格 James M. Freitag
      埃里克·蒂尼尼 Eric Tignini
      约翰·理查森 John Richardson
      Paul Boyington Paul Boyington

◎标  签 动作 / 美国 / 战争 / 我想看这部电影 / 间谍 / 英国 / P-38 / 肌肉

Video
ID : 1
Format : AVC
Format/Info : Advanced Video Codec
Format profile : [email protected]
Format settings : CABAC / 4 Ref Frames
Format settings, CABAC : Yes
Format settings, Reference frames : 4 frames
Codec ID : V_MPEG4/ISO/AVC
Duration : 1 h 38 min
Bit rate : 17.5 Mb/s
Width : 1 920 pixels
Height : 1 080 pixels
Display aspect ratio : 16:9
Frame rate mode : Constant
Frame rate : 23.976 (24000/1001/189150) FPS
Color space : YUV
Chroma subsampling : 4:2:0
Bit depth : 8 bits
Scan type : Progressive
Bits/(Pixel*Frame) : 0.351
Stream size : 12.1 GiB (93%)
Writing library : x264 core 164 r3098 7628a56
Encoding settings : cabac=1 / ref=4 / deblock=1:-3:-3 / analyse=0x3:0x133 / me=umh / subme=9 / psy=1 / psy_rd=1.00:0.00 / mixed_ref=1 / me_range=16 / chroma_me=1 / trellis=2 / 8x8dct=1 / cqm=0 / deadzone=21,11 / fast_pskip=0 / chroma_qp_offset=-2 / threads=24 / lookahead_threads=2 / sliced_threads=0 / nr=0 / decimate=1 / interlaced=0 / bluray_compat=0 / constrained_intra=0 / bframes=3 / b_pyramid=2 / b_adapt=2 / b_bias=0 / direct=3 / weightb=1 / open_gop=0 / weightp=2 / keyint=250 / keyint_min=23 / scenecut=40 / intra_refresh=0 / rc_lookahead=60 / rc=crf / mbtree=1 / crf=19.0 / qcomp=0.60 / qpmin=0 / qpmax=69 / qpstep=4 / ip_ratio=1.40 / aq=3:0.60
Default : Yes
Forced : No
Color range : Limited
Matrix coefficients : BT.709

Audio
ID : 2
Format : FLAC
Format/Info : Free Lossless Audio Codec
Codec ID : A_FLAC
Duration : 1 h 38 min
Bit rate mode : Variable
Bit rate : 1 392 kb/s
Channel(s) : 2 channels
Channel layout : L R
Sampling rate : 48.0 kHz
Frame rate : 11.719 FPS (4096 SPF)
Bit depth : 24 bits
Compression mode : Lossless
Stream size : 986 MiB (7%)
Writing library : libFLAC 1.2.1 (UTC 2007-09-17)
Language : English
Default : Yes
Forced : No

Text #1
ID : 3
Format : PGS
Muxing mode : zlib
Codec ID : S_HDMV/PGS
Codec ID/Info : Picture based subtitle format used on BDs/HD-DVDs
Duration : 1 h 32 min
Bit rate : 27.0 kb/s
Count of elements : 1451
Stream size : 17.9 MiB (0%)
Language : English
Default : No
Forced : No

Text #2
ID : 4
Format : PGS
Muxing mode : zlib
Codec ID : S_HDMV/PGS
Codec ID/Info : Picture based subtitle format used on BDs/HD-DVDs
Duration : 1 h 32 min
Bit rate : 25.8 kb/s
Count of elements : 1424
Stream size : 17.1 MiB (0%)
Language : German
Default : No
Forced : No

Menu
00:00:00.000 : 00:00:00.000
00:02:26.855 : 00:02:26.855
00:06:15.166 : 00:06:15.166
00:12:12.398 : 00:12:12.398
00:18:10.881 : 00:18:10.881
00:23:00.212 : 00:23:00.212
00:29:02.282 : 00:29:02.282
00:33:36.431 : 00:33:36.431
00:38:50.119 : 00:38:50.119
00:43:54.507 : 00:43:54.507
00:53:50.519 : 00:53:50.519
00:58:50.444 : 00:58:50.444
01:04:47.884 : 01:04:47.884
01:14:37.181 : 01:14:37.181
01:24:22.432 : 01:24:22.432
01:30:55.825 : 01:30:55.825
01:35:02.405 : 01:35:02.405





1 个附件 售价 大小 下载 时间

Aces.Iron.Eagle.III.1992.1080p.BluRay.x264-FREEMAN.torrent 0 金币 17.03K 329 次 4天前

#1楼
发帖时间:2022-09-23 11:12:27   |   回复数:0
游客组