travismk
一代宗师

[2021] [其它] [剧情] [WEB-1080P] 功夫佐拉 Kung.Fu.Zohra.2022.FRENCH.1080p.WEBRip.AAC2.0.x264-KUCHU 4.15GB

-->

帖子完整标题:功夫佐拉 Kung.Fu.Zohra.2022.FRENCH.1080p.WEBRip.AAC2.0.x264-KUCHU 4.15GB



◎标  题 功夫佐拉
◎片  名 Kung Fu Zohra
◎年  代 2021
◎产  地 法国
◎类  别 剧情
◎语  言 法语
◎上映日期 2022-01-26(鹿特丹电影节) / 2022-03-09(法国)
◎IMDb评分 5/10 (157人评价)
◎IMDb链接 https://www.imdb.com/title/tt13261944/
◎豆瓣链接 https://movie.douban.com/subject/35450597/
◎片  长 100分钟
◎导  演 马布鲁克·埃尔·梅奇 Mabrouk El Mechri
◎编  剧 马布鲁克·埃尔·梅奇 Mabrouk El Mechri

◎简  介
  佐拉是个热爱生活的女人,与丈夫相识后度过了一段快乐时光也让她对未来有了憧憬,但婚后好景不长,丈夫开始出现暴力行为,而他和女儿却又关系亲近,所以离婚对佐拉并不有利,她深信那只会让她和女儿分离,无奈之下她只能默默忍受他的每次击打,而事实已经逐渐瞒不过周围的人了。为了生计,佐拉做着健身 房的清洁工作,在那里她遇到了看门大爷,但没想到的是这位大爷却是位功夫大师!在施以援手之后,佐拉决定向这个不会说法语的古怪老头拜师学艺,而这个老头更是模拟出她家厨房的环境教她招式动作。不断地磨炼后,佐拉的身手得以精进,她甚至有了帮其他女孩解围的勇气,但面对施暴者,面对和女儿未来的生活,她是否能让丈夫最终在离婚协议书上签字?最终的对决和考验还在等待着她!

Video
ID : 1
Format : AVC
Format/Info : Advanced Video Codec
Format profile : [email protected]
Format settings : CABAC / 4 Ref Frames
Format settings, CABAC : Yes
Format settings, Reference frames : 4 frames
Codec ID : V_MPEG4/ISO/AVC
Duration : 1 h 39 min
Bit rate : 5 687 kb/s
Width : 1 920 pixels
Height : 1 080 pixels
Display aspect ratio : 16:9
Frame rate mode : Constant
Frame rate : 24.000 FPS
Color space : YUV
Chroma subsampling : 4:2:0
Bit depth : 8 bits
Scan type : Progressive
Bits/(Pixel*Frame) : 0.114
Stream size : 3.93 GiB (95%)
Default : Yes
Forced : No

Audio
ID : 2
Format : AAC LC
Format/Info : Advanced Audio Codec Low Complexity
Codec ID : A_AAC-2
Duration : 1 h 39 min
Bit rate : 317 kb/s
Channel(s) : 2 channels
Channel layout : L R
Sampling rate : 48.0 kHz
Frame rate : 46.875 FPS (1024 SPF)
Compression mode : Lossy
Stream size : 225 MiB (5%)
Language : French
Default : Yes
Forced : No

Text
ID : 3
Format : UTF-8
Codec ID : S_TEXT/UTF8
Codec ID/Info : UTF-8 Plain Text
Duration : 1 h 38 min
Bit rate : 26 b/s
Frame rate : 0.138 FPS
Count of elements : 818
Stream size : 19.4 KiB (0%)
Language : English
Default : Yes
Forced : No





1 个附件 售价 大小 下载 时间

Kung.Fu.Zohra.2022.FRENCH.1080p.WEBRip.AAC2.0.x264-KUCHU.torrent 0 金币 21.40K 532 次 12天前

#1楼
发帖时间:2022-08-06 11:28:17   |   回复数:0
游客组