travismk
一代宗师

[更 早] [欧美] [喜剧] [BD-4K] 空前绝后满天飞 Airplane.1980.2160p.WEB-DL.x265.10bit.HDR.DTS-HD.MA.5.1-NOGRP 17.79GB

-->

帖子完整标题:空前绝后满天飞 Airplane.1980.2160p.WEB-DL.x265.10bit.HDR.DTS-HD.MA.5.1-NOGRP 17.79GB



◎标  题 空前绝后满天飞
◎译  名 逢凶化吉满天飞 / 飞机!
◎片  名 Airplane!
◎年  代 1980
◎产  地 美国
◎类  别 喜剧
◎语  言 英语
◎上映日期 1980-07-02(美国)
◎IMDb评分 7.7/10 (226862人评价)
◎IMDb链接 https://www.imdb.com/title/tt0080339/
◎豆瓣评分 7.5/10 (15633人评价)
◎豆瓣链接 https://movie.douban.com/subject/1292785/
◎片  长 88 分钟
◎导  演 大卫·扎克 David Zucker
      杰瑞·扎克 Jerry Zucker
      吉姆·艾布拉姆斯 Jim Abrahams
◎编  剧 吉姆·艾布拉姆斯 Jim Abrahams
      大卫·扎克 David Zucker
      杰瑞·扎克 Jerry Zucker
      亚瑟·黑利 Arthur Hailey
      霍尔·巴特利特 Hall Bartlett
      约翰·C·钱皮恩 John C. Champion
◎演  员 卡里姆·阿卜杜尔-贾巴尔 Kareem Abdul-Jabbar
      劳埃德·布里吉斯 Lloyd Bridges
      皮特·格拉维斯 Peter Graves
      朱丽·哈基提 Julie Hagerty
      罗伯特·海斯 Robert Hays
      莱斯利·尼尔森 Leslie Nielsen
      Lorna Patterson Lorna Patterson
      拉里·布雷克 Larry Blake
      埃尔默·伯恩斯坦 Elmer Bernstein
      Patrick Kennedy Patrick Kennedy
      Joel Thurm Joel Thurm
      瓦尔德·普雷斯顿 Ward Preston
      Anne D. McCulley Anne D. McCulley
      罗珊娜·诺顿 Rosanna Norton
      Joan Phillips Joan Phillips
      Edwin Butterworth Edwin Butterworth
      丹尼尔·艾提奥斯 Daniel Attias
      彼得·库兰 Peter Kuran
      Richard O. Helmer Richard O. Helmer
      克里斯托弗·S·罗斯 Christopher S. Ross

◎标  签 喜剧 / 美国 / 无厘头 / 恶搞 / 搞笑 / 1980 / 荒诞 / 美国电影

◎简  介
  前飞行员Ted Striker (罗伯特·海斯 Robert Hays 饰)在一场战争中有了心理阴影,对飞行有恐惧。他的女友Elaine Dickinson (朱丽·哈基提 Julie Hagerty饰)却是个空姐。这天,Elaine跟Ted提出了分手,之后便上飞机上班 去了。Ted为了挽回女友的心,也费尽心思上了飞机。然而,飞机上发生了无数令人啼笑皆非的事情。先是乘客们相继发生食物中毒,连机长也不能幸免于难。无奈之下,唯一有驾驶飞机经历的Ted只能和女友一起坐在驾驶舱操纵飞机。他打开了自动驾驶,飞机能够自行运转,但无法正常降落。于是一场惊心动魄的迫降之旅开始了,而Ted是否能重新赢回女友的心呢?
本片各种无厘头桥段让人捧腹大笑,成为好莱坞经典喜剧。

Video
ID : 1
Format : HEVC
Format/Info : High Efficiency Video Coding
Format profile : Main [email protected]@High
HDR format : SMPTE ST 2086, HDR10 compatible
Codec ID : V_MPEGH/ISO/HEVC
Duration : 1 h 27 min
Bit rate : 24.8 Mb/s
Width : 3 840 pixels
Height : 2 160 pixels
Display aspect ratio : 16:9
Frame rate mode : Constant
Frame rate : 23.976 FPS
Color space : YUV
Chroma subsampling : 4:2:0 (Type 2)
Bit depth : 10 bits
Bits/(Pixel*Frame) : 0.125
Stream size : 15.2 GiB (86%)
Default : Yes
Forced : No
Color range : Limited
Color primaries : BT.2020
Transfer characteristics : PQ
Matrix coefficients : BT.2020 non-constant
Mastering display color primaries : Display P3
Mastering display luminance : min: 0.0050 cd/m2, max: 1000 cd/m2
Maximum Content Light Level : 3157 cd/m2
Maximum Frame-Average Light Level : 427 cd/m2

Audio #1
ID : 2
ID in the original source medium : 4352 (0x1100)
Format : DTS XLL
Format/Info : Digital Theater Systems
Commercial name : DTS-HD Master Audio
Codec ID : A_DTS
Duration : 1 h 27 min
Bit rate mode : Variable
Bit rate : 3 739 kb/s
Channel(s) : 6 channels
Channel layout : C L R Ls Rs LFE
Sampling rate : 48.0 kHz
Frame rate : 93.750 FPS (512 SPF)
Bit depth : 24 bits
Compression mode : Lossless
Stream size : 2.29 GiB (13%)
Title : DTS-HD MA 5.1
Language : English
Default : Yes
Forced : No
Original source medium : Blu-ray

Audio #2
ID : 3
Format : AC-3
Format/Info : Audio Coding 3
Commercial name : Dolby Digital
Codec ID : A_AC3
Duration : 1 h 27 min
Bit rate mode : Constant
Bit rate : 384 kb/s
Channel(s) : 6 channels
Channel layout : L R C LFE Ls Rs
Sampling rate : 48.0 kHz
Frame rate : 31.250 FPS (1536 SPF)
Compression mode : Lossy
Stream size : 241 MiB (1%)
Title : DD 5.1
Language : English
Service kind : Complete Main
Default : No
Forced : No

Text #1
ID : 4
Format : UTF-8
Codec ID : S_TEXT/UTF8
Codec ID/Info : UTF-8 Plain Text
Duration : 1 h 25 min
Bit rate : 67 b/s
Frame rate : 0.209 FPS
Count of elements : 1079
Stream size : 42.6 KiB (0%)
Language : English
Default : Yes
Forced : No

Text #2
ID : 5
Format : UTF-8
Codec ID : S_TEXT/UTF8
Codec ID/Info : UTF-8 Plain Text
Duration : 1 h 25 min
Bit rate : 86 b/s
Frame rate : 0.186 FPS
Count of elements : 959
Stream size : 54.4 KiB (0%)
Title : Arabic
Language : Arabic
Default : No
Forced : No

Text #3
ID : 6
Format : UTF-8
Codec ID : S_TEXT/UTF8
Codec ID/Info : UTF-8 Plain Text
Duration : 1 h 25 min
Bit rate : 48 b/s
Frame rate : 0.174 FPS
Count of elements : 898
Stream size : 30.4 KiB (0%)
Title : Chinese Mandarin Traditional
Language : Chinese
Default : No
Forced : No

Text #4
ID : 7
Format : UTF-8
Codec ID : S_TEXT/UTF8
Codec ID/Info : UTF-8 Plain Text
Duration : 1 h 25 min
Bit rate : 58 b/s
Frame rate : 0.187 FPS
Count of elements : 965
Stream size : 36.6 KiB (0%)
Title : Danish
Language : Danish
Default : No
Forced : No

Text #5
ID : 8
Format : UTF-8
Codec ID : S_TEXT/UTF8
Codec ID/Info : UTF-8 Plain Text
Duration : 1 h 25 min
Bit rate : 65 b/s
Frame rate : 0.186 FPS
Count of elements : 959
Stream size : 41.2 KiB (0%)
Title : Spanish European
Language : Spanish
Default : No
Forced : No

Text #6
ID : 9
Format : UTF-8
Codec ID : S_TEXT/UTF8
Codec ID/Info : UTF-8 Plain Text
Duration : 1 h 25 min
Bit rate : 55 b/s
Frame rate : 0.187 FPS
Count of elements : 967
Stream size : 34.9 KiB (0%)
Title : Finnish
Language : Finnish
Default : No
Forced : No

Text #7
ID : 10
Format : UTF-8
Codec ID : S_TEXT/UTF8
Codec ID/Info : UTF-8 Plain Text
Duration : 1 h 26 min
Bit rate : 70 b/s
Frame rate : 0.236 FPS
Count of elements : 1224
Stream size : 44.6 KiB (0%)
Title : French European
Language : French
Default : No
Forced : No

Text #8
ID : 11
Format : UTF-8
Codec ID : S_TEXT/UTF8
Codec ID/Info : UTF-8 Plain Text
Duration : 1 h 25 min
Bit rate : 76 b/s
Frame rate : 0.190 FPS
Count of elements : 978
Stream size : 48.2 KiB (0%)
Title : Hebrew
Language : Hebrew
Default : No
Forced : No

Text #9
ID : 12
Format : UTF-8
Codec ID : S_TEXT/UTF8
Codec ID/Info : UTF-8 Plain Text
Duration : 1 h 25 min
Bit rate : 57 b/s
Frame rate : 0.187 FPS
Count of elements : 966
Stream size : 35.9 KiB (0%)
Title : Dutch
Language : Dutch
Default : No
Forced : No

Text #10
ID : 13
Format : UTF-8
Codec ID : S_TEXT/UTF8
Codec ID/Info : UTF-8 Plain Text
Duration : 1 h 25 min
Bit rate : 58 b/s
Frame rate : 0.188 FPS
Count of elements : 972
Stream size : 37.0 KiB (0%)
Title : Norwegian
Language : Norwegian
Default : No
Forced : No

Text #11
ID : 14
Format : UTF-8
Codec ID : S_TEXT/UTF8
Codec ID/Info : UTF-8 Plain Text
Duration : 1 h 25 min
Bit rate : 63 b/s
Frame rate : 0.187 FPS
Count of elements : 967
Stream size : 40.3 KiB (0%)
Title : Portuguese European
Language : Portuguese
Default : No
Forced : No

Text #12
ID : 15
Format : UTF-8
Codec ID : S_TEXT/UTF8
Codec ID/Info : UTF-8 Plain Text
Duration : 1 h 25 min
Bit rate : 115 b/s
Frame rate : 0.243 FPS
Count of elements : 1252
Stream size : 72.9 KiB (0%)
Title : Russian
Language : Russian
Default : No
Forced : No

Text #13
ID : 16
Format : UTF-8
Codec ID : S_TEXT/UTF8
Codec ID/Info : UTF-8 Plain Text
Duration : 1 h 25 min
Bit rate : 60 b/s
Frame rate : 0.187 FPS
Count of elements : 963
Stream size : 37.9 KiB (0%)
Title : Swedish
Language : Swedish
Default : No
Forced : No

Text #14
ID : 17
Format : UTF-8
Codec ID : S_TEXT/UTF8
Codec ID/Info : UTF-8 Plain Text
Duration : 1 h 25 min
Bit rate : 149 b/s
Frame rate : 0.175 FPS
Count of elements : 903
Stream size : 94.1 KiB (0%)
Title : Thai
Language : Thai
Default : No
Forced : No

Text #15
ID : 18
Format : UTF-8
Codec ID : S_TEXT/UTF8
Codec ID/Info : UTF-8 Plain Text
Duration : 1 h 25 min
Bit rate : 56 b/s
Frame rate : 0.186 FPS
Count of elements : 957
Stream size : 35.6 KiB (0%)
Title : Turkish
Language : Turkish
Default : No
Forced : No

Text #16
ID : 19
ID in the original source medium : 4608 (0x1200)
Format : PGS
Muxing mode : zlib
Codec ID : S_HDMV/PGS
Codec ID/Info : Picture based subtitle format used on BDs/HD-DVDs
Duration : 1 h 25 min
Bit rate : 41.9 kb/s
Frame rate : 0.420 FPS
Count of elements : 2168
Stream size : 25.7 MiB (0%)
Language : English
Default : No
Forced : No
Original source medium : Blu-ray

Text #17
ID : 20
ID in the original source medium : 4609 (0x1201)
Format : PGS
Muxing mode : zlib
Codec ID : S_HDMV/PGS
Codec ID/Info : Picture based subtitle format used on BDs/HD-DVDs
Duration : 1 h 26 min
Bit rate : 45.1 kb/s
Frame rate : 0.486 FPS
Count of elements : 2535
Stream size : 28.0 MiB (0%)
Title : SDH
Language : English
Default : No
Forced : No
Original source medium : Blu-ray

Text #18
ID : 21
ID in the original source medium : 4610 (0x1202)
Format : PGS
Muxing mode : zlib
Codec ID : S_HDMV/PGS
Codec ID/Info : Picture based subtitle format used on BDs/HD-DVDs
Duration : 1 h 26 min
Bit rate : 40.9 kb/s
Frame rate : 0.384 FPS
Count of elements : 1998
Stream size : 25.4 MiB (0%)
Language : German
Default : No
Forced : No
Original source medium : Blu-ray

Text #19
ID : 22
ID in the original source medium : 4611 (0x1203)
Format : PGS
Muxing mode : zlib
Codec ID : S_HDMV/PGS
Codec ID/Info : Picture based subtitle format used on BDs/HD-DVDs
Duration : 1 h 26 min
Bit rate : 40.9 kb/s
Frame rate : 0.471 FPS
Count of elements : 2445
Stream size : 25.3 MiB (0%)
Language : French
Default : No
Forced : No
Original source medium : Blu-ray

Text #20
ID : 23
ID in the original source medium : 4612 (0x1204)
Format : PGS
Muxing mode : zlib
Codec ID : S_HDMV/PGS
Codec ID/Info : Picture based subtitle format used on BDs/HD-DVDs
Duration : 1 h 25 min
Bit rate : 23.7 kb/s
Frame rate : 0.355 FPS
Count of elements : 1830
Stream size : 14.6 MiB (0%)
Language : Japanese
Default : No
Forced : No
Original source medium : Blu-ray

Menu
00:00:00.000 : en:Chapter 01
00:04:27.517 : en:Chapter 02
00:07:03.214 : en:Chapter 03
00:10:37.554 : en:Chapter 04
00:13:19.883 : en:Chapter 05
00:15:46.321 : en:Chapter 06
00:21:40.759 : en:Chapter 07
00:24:49.239 : en:Chapter 08
00:27:05.583 : en:Chapter 09
00:30:43.218 : en:Chapter 10
00:33:13.284 : en:Chapter 11
00:35:51.109 : en:Chapter 12
00:40:41.775 : en:Chapter 13
00:45:47.205 : en:Chapter 14
00:48:37.042 : en:Chapter 15
00:51:10.945 : en:Chapter 16
00:54:06.788 : en:Chapter 17
00:56:15.709 : en:Chapter 18
00:58:41.563 : en:Chapter 19
01:01:58.551 : en:Chapter 20
01:06:46.214 : en:Chapter 21
01:10:37.237 : en:Chapter 22
01:12:15.794 : en:Chapter 23
01:15:27.235 : en:Chapter 24
01:19:56.338 : en:Chapter 25
01:23:01.231 : en:Chapter 26





1 个附件 售价 大小 下载 时间

Airplane.1980.2160p.WEB-DL.x265.10bit.HDR.DTS-HD.MA.5.1-NOGRP.torrent 0 金币 22.88K 560 次 12天前

#1楼
发帖时间:2022-08-06 11:08:14   |   回复数:0
游客组