travismk
一代宗师

[2022] [欧美] [喜剧] [WEB-720P] 乐高星球大战:夏日假期 LEGO.Star.Wars.Summer.Vacation.2022.720p.WEB.h264-SALT 1.06GB

-->

帖子完整标题:乐高星球大战:夏日假期 LEGO.Star.Wars.Summer.Vacation.2022.720p.WEB.h264-SALT 1.06GB



◎标  题 乐高星球大战:夏日假期
◎译  名 LEGO星际大战:夏日假期(台) / The LEGO Holiday Special
◎片  名 Lego Star Wars: Summer Vacation
◎年  代 2022
◎产  地 美国
◎类  别 喜剧 / 动作 / 科幻 / 动画 / 奇幻 / 冒险
◎语  言 英语
◎上映日期 2022-08-05(美国网络)
◎IMDb链接 https://www.imdb.com/title/tt20784210/
◎豆瓣链接 https://movie.douban.com/subject/35915734/
◎导  演 肯·坎宁安 Ken Cunningham
◎编  剧 大卫·谢恩 David Shayne
◎演  员 海伦·萨德勒 Helen Sadler
      杰克·格林 Jake Green
      凯莉·玛丽·陈 Kelly Marie Tran
      奥玛·本森·米勒 Omar Benson Miller
      安东尼·丹尼尔斯 Anthony Daniels
      比利·迪·威廉姆斯 Billy Dee Williams
      迪·布拉雷·贝克尔 Dee Bradley Baker
      詹姆斯·阿诺德·泰勒 James Arnold Taylor
      凯文·迈克尔·理查德森 Kevin Michael Richardson
      凯丽·卡伦 Kyliegh Curran
      马特·兰特尔 Matt Lanter
      马特·斯隆 Matt Sloan
      马修·伍德 Matthew Wood
      罗斯·马昆德 Ross Marquand
      谢尔碧·杨 Shelby Young
      特雷弗·德瓦 Trevor Devall
      托马斯·列农 Thomas Lennon
      保罗·F·汤普金斯 Paul F. Tompkins
      阿尔·杨科维克 'Weird Al' Yankovic

◎简  介
  《乐高星球大战:夏日假期》将于8月5日上线Disney+。

Video
ID : 1
Format : AVC
Format/Info : Advanced Video Codec
Format profile : [email protected]
Format settings : CABAC / 4 Ref Frames
Format settings, CABAC : Yes
Format settings, Reference frames : 4 frames
Codec ID : V_MPEG4/ISO/AVC
Duration : 45 min 2 s
Bit rate mode : Variable
Bit rate : 3 102 kb/s
Maximum bit rate : 6 375 kb/s
Width : 1 280 pixels
Height : 720 pixels
Display aspect ratio : 16:9
Frame rate mode : Constant
Frame rate : 24.000 FPS
Color space : YUV
Chroma subsampling : 4:2:0
Bit depth : 8 bits
Scan type : Progressive
Bits/(Pixel*Frame) : 0.140
Stream size : 999 MiB (92%)
Language : English
Default : Yes
Forced : No
Color range : Limited
Color primaries : BT.709
Transfer characteristics : BT.709
Matrix coefficients : BT.709

Audio
ID : 2
Format : E-AC-3
Format/Info : Enhanced AC-3
Commercial name : Dolby Digital Plus
Codec ID : A_EAC3
Duration : 45 min 2 s
Bit rate mode : Constant
Bit rate : 256 kb/s
Channel(s) : 6 channels
Channel layout : L R C LFE Ls Rs
Sampling rate : 48.0 kHz
Frame rate : 31.250 FPS (1536 SPF)
Compression mode : Lossy
Stream size : 82.5 MiB (8%)
Language : English
Service kind : Complete Main
Default : Yes
Forced : No

Text #1
ID : 3
Format : UTF-8
Codec ID : S_TEXT/UTF8
Codec ID/Info : UTF-8 Plain Text
Duration : 43 min 57 s
Bit rate : 89 b/s
Count of elements : 743
Stream size : 29.0 KiB (0%)
Title : English (SDH)
Language : English
Default : No
Forced : No

Text #2
ID : 4
Format : UTF-8
Codec ID : S_TEXT/UTF8
Codec ID/Info : UTF-8 Plain Text
Duration : 44 min 23 s
Bit rate : 75 b/s
Count of elements : 633
Stream size : 24.7 KiB (0%)
Title : ?e?tina
Language : Czech
Default : No
Forced : No

Text #3
ID : 5
Format : UTF-8
Codec ID : S_TEXT/UTF8
Codec ID/Info : UTF-8 Plain Text
Duration : 44 min 23 s
Bit rate : 76 b/s
Count of elements : 531
Stream size : 25.0 KiB (0%)
Title : Dansk
Language : Danish
Default : No
Forced : No

Text #4
ID : 6
Format : UTF-8
Codec ID : S_TEXT/UTF8
Codec ID/Info : UTF-8 Plain Text
Duration : 44 min 23 s
Bit rate : 86 b/s
Count of elements : 637
Stream size : 28.0 KiB (0%)
Title : Deutsch
Language : German
Default : No
Forced : No

Text #5
ID : 7
Format : UTF-8
Codec ID : S_TEXT/UTF8
Codec ID/Info : UTF-8 Plain Text
Duration : 44 min 23 s
Bit rate : 142 b/s
Count of elements : 636
Stream size : 46.3 KiB (0%)
Title : Greek
Language : Greek
Default : No
Forced : No

Text #6
ID : 8
Format : UTF-8
Codec ID : S_TEXT/UTF8
Codec ID/Info : UTF-8 Plain Text
Duration : 44 min 23 s
Bit rate : 80 b/s
Count of elements : 637
Stream size : 26.2 KiB (0%)
Title : Espa?ol (Latinoamericano)
Language : Spanish
Default : No
Forced : No

Text #7
ID : 9
Format : UTF-8
Codec ID : S_TEXT/UTF8
Codec ID/Info : UTF-8 Plain Text
Duration : 44 min 23 s
Bit rate : 85 b/s
Count of elements : 636
Stream size : 27.7 KiB (0%)
Title : Espa?ol
Language : Spanish
Default : No
Forced : No

Text #8
ID : 10
Format : UTF-8
Codec ID : S_TEXT/UTF8
Codec ID/Info : UTF-8 Plain Text
Duration : 44 min 23 s
Bit rate : 76 b/s
Count of elements : 637
Stream size : 24.9 KiB (0%)
Title : Suomi
Language : Finnish
Default : No
Forced : No

Text #9
ID : 11
Format : UTF-8
Codec ID : S_TEXT/UTF8
Codec ID/Info : UTF-8 Plain Text
Duration : 44 min 1 s
Bit rate : 79 b/s
Count of elements : 776
Stream size : 25.7 KiB (0%)
Title : Fran?ais
Language : French
Default : No
Forced : No

Text #10
ID : 12
Format : UTF-8
Codec ID : S_TEXT/UTF8
Codec ID/Info : UTF-8 Plain Text
Duration : 44 min 23 s
Bit rate : 81 b/s
Count of elements : 637
Stream size : 26.4 KiB (0%)
Title : Magyar
Language : Hungarian
Default : No
Forced : No

Text #11
ID : 13
Format : UTF-8
Codec ID : S_TEXT/UTF8
Codec ID/Info : UTF-8 Plain Text
Duration : 44 min 23 s
Bit rate : 80 b/s
Count of elements : 636
Stream size : 26.1 KiB (0%)
Title : Italiano
Language : Italian
Default : No
Forced : No

Text #12
ID : 14
Format : UTF-8
Codec ID : S_TEXT/UTF8
Codec ID/Info : UTF-8 Plain Text
Duration : 44 min 23 s
Bit rate : 78 b/s
Count of elements : 699
Stream size : 25.6 KiB (0%)
Title : Japanese
Language : Japanese
Default : No
Forced : No

Text #13
ID : 15
Format : UTF-8
Codec ID : S_TEXT/UTF8
Codec ID/Info : UTF-8 Plain Text
Duration : 44 min 23 s
Bit rate : 85 b/s
Count of elements : 634
Stream size : 27.8 KiB (0%)
Title : Korean
Language : Korean
Default : No
Forced : No

Text #14
ID : 16
Format : UTF-8
Codec ID : S_TEXT/UTF8
Codec ID/Info : UTF-8 Plain Text
Duration : 44 min 23 s
Bit rate : 70 b/s
Count of elements : 568
Stream size : 23.0 KiB (0%)
Title : Nederlands
Language : Dutch
Default : No
Forced : No

Text #15
ID : 17
Format : UTF-8
Codec ID : S_TEXT/UTF8
Codec ID/Info : UTF-8 Plain Text
Duration : 44 min 23 s
Bit rate : 76 b/s
Count of elements : 637
Stream size : 24.7 KiB (0%)
Title : Norsk
Language : Norwegian
Default : No
Forced : No

Text #16
ID : 18
Format : UTF-8
Codec ID : S_TEXT/UTF8
Codec ID/Info : UTF-8 Plain Text
Duration : 44 min 23 s
Bit rate : 80 b/s
Count of elements : 637
Stream size : 26.1 KiB (0%)
Title : Polski
Language : Polish
Default : No
Forced : No

Text #17
ID : 19
Format : UTF-8
Codec ID : S_TEXT/UTF8
Codec ID/Info : UTF-8 Plain Text
Duration : 44 min 23 s
Bit rate : 83 b/s
Count of elements : 636
Stream size : 27.1 KiB (0%)
Title : Português
Language : Portuguese
Default : No
Forced : No

Text #18
ID : 20
Format : UTF-8
Codec ID : S_TEXT/UTF8
Codec ID/Info : UTF-8 Plain Text
Duration : 44 min 23 s
Bit rate : 85 b/s
Count of elements : 637
Stream size : 27.8 KiB (0%)
Title : Português (Brasil)
Language : Portuguese
Default : No
Forced : No

Text #19
ID : 21
Format : UTF-8
Codec ID : S_TEXT/UTF8
Codec ID/Info : UTF-8 Plain Text
Duration : 44 min 39 s
Bit rate : 85 b/s
Count of elements : 638
Stream size : 27.9 KiB (0%)
Title : Roman?
Language : Romanian
Default : No
Forced : No

Text #20
ID : 22
Format : UTF-8
Codec ID : S_TEXT/UTF8
Codec ID/Info : UTF-8 Plain Text
Duration : 44 min 23 s
Bit rate : 78 b/s
Count of elements : 637
Stream size : 25.5 KiB (0%)
Title : Sloven?ina
Language : Slovak
Default : No
Forced : No

Text #21
ID : 23
Format : UTF-8
Codec ID : S_TEXT/UTF8
Codec ID/Info : UTF-8 Plain Text
Duration : 44 min 23 s
Bit rate : 76 b/s
Count of elements : 637
Stream size : 25.0 KiB (0%)
Title : Svenska
Language : Swedish
Default : No
Forced : No

Text #22
ID : 24
Format : UTF-8
Codec ID : S_TEXT/UTF8
Codec ID/Info : UTF-8 Plain Text
Duration : 44 min 23 s
Bit rate : 80 b/s
Count of elements : 636
Stream size : 26.3 KiB (0%)
Title : Türk?e
Language : Turkish
Default : No
Forced : No

Text #23
ID : 25
Format : UTF-8
Codec ID : S_TEXT/UTF8
Codec ID/Info : UTF-8 Plain Text
Duration : 44 min 23 s
Bit rate : 68 b/s
Count of elements : 637
Stream size : 22.3 KiB (0%)
Title : Chinese (Hong Kong)
Language : Chinese
Default : No
Forced : No

Text #24
ID : 26
Format : UTF-8
Codec ID : S_TEXT/UTF8
Codec ID/Info : UTF-8 Plain Text
Duration : 44 min 23 s
Bit rate : 65 b/s
Count of elements : 636
Stream size : 21.3 KiB (0%)
Title : Chinese (Traditional)
Language : Chinese
Default : No
Forced : No

Text #25
ID : 27
Format : UTF-8
Codec ID : S_TEXT/UTF8
Codec ID/Info : UTF-8 Plain Text
Duration : 44 min 23 s
Bit rate : 73 b/s
Count of elements : 636
Stream size : 24.0 KiB (0%)
Title : Chinese (Simplified)
Language : Chinese
Default : No
Forced : No





1 个附件 售价 大小 下载 时间

LEGO.Star.Wars.Summer.Vacation.2022.720p.WEB.h264-SALT.torrent 0 金币 11.34K 154 次 13天前

#1楼
发帖时间:2022-08-06 10:45:36   |   回复数:0
游客组