topgood
武林盟主

[2020] [其它] [剧情] [WEB-1080P] 烈焰 No.Escapes.2020.RUSSIAN.1080p.AMZN.WEBRip.DD5.1.x264-CBON 8.66GB

-->

帖子完整标题:烈焰 No.Escapes.2020.RUSSIAN.1080p.AMZN.WEBRip.DD5.1.x264-CBON 8.66GB



◎标  题 烈焰
◎译  名 Ogon
◎片  名 Огонь
◎年  代 2020
◎产  地 俄罗斯
◎类  别 剧情 / 动作 / 冒险 / 灾难
◎语  言 俄语
◎上映日期 2020-12-24(俄罗斯)
◎IMDb评分 6.5/10 (1231人评价)
◎IMDb链接 https://www.imdb.com/title/tt12200256/
◎豆瓣链接 https://movie.douban.com/subject/35174426/
◎演  员 伊琳娜·戈尔巴乔娃 Irina Gorbacheva
      伊万·扬科夫斯基 Ivan Yankovskiy
      尼基塔·米哈尔科夫 Nikita Mikhalkov

◎简  介
  A heroic story about firefighters and rescuers. What we call an act of bravery is just a usual routine for them, if only one can get used to mortal danger and extreme risk. When people in distress seem to have nobody who may help them, rescuers come to fight against merciless forces of nature.

Video
ID : 1
Format : AVC
Format/Info : Advanced Video Codec
Format profile : [email protected]
Format settings : CABAC / 4 Ref Frames
Format settings, CABAC : Yes
Format settings, Reference frames : 4 frames
Codec ID : V_MPEG4/ISO/AVC
Duration : 2 h 11 min
Bit rate mode : Constant
Bit rate : 8 115 kb/s
Nominal bit rate : 10 000 kb/s
Width : 1 920 pixels
Height : 800 pixels
Display aspect ratio : 2.40:1
Frame rate mode : Constant
Frame rate : 24.000 FPS
Color space : YUV
Chroma subsampling : 4:2:0
Bit depth : 8 bits
Scan type : Progressive
Bits/(Pixel*Frame) : 0.220
Stream size : 7.47 GiB (86%)
Language : Russian
Default : Yes
Forced : No
Color range : Limited
Color primaries : BT.709
Transfer characteristics : BT.709
Matrix coefficients : BT.709

Audio #1
ID : 2
Format : AC-3
Format/Info : Audio Coding 3
Commercial name : Dolby Digital
Codec ID : A_AC3
Duration : 2 h 11 min
Bit rate mode : Constant
Bit rate : 640 kb/s
Channel(s) : 6 channels
Channel layout : L R C LFE Ls Rs
Sampling rate : 48.0 kHz
Frame rate : 31.250 FPS (1536 SPF)
Compression mode : Lossy
Stream size : 604 MiB (7%)
Language : Russian
Service kind : Complete Main
Default : Yes
Forced : No

Audio #2
ID : 3
Format : E-AC-3
Format/Info : Enhanced AC-3
Commercial name : Dolby Digital Plus
Codec ID : A_EAC3
Duration : 2 h 11 min
Bit rate mode : Constant
Bit rate : 640 kb/s
Channel(s) : 6 channels
Channel layout : L R C LFE Ls Rs
Sampling rate : 48.0 kHz
Frame rate : 31.250 FPS (1536 SPF)
Compression mode : Lossy
Stream size : 604 MiB (7%)
Language : English
Service kind : Complete Main
Default : No
Forced : No

Text #1
ID : 4
Format : UTF-8
Codec ID : S_TEXT/UTF8
Codec ID/Info : UTF-8 Plain Text
Duration : 2 h 0 min
Bit rate : 45 b/s
Count of elements : 1427
Stream size : 39.9 KiB (0%)
Title : English (Original)
Language : English
Default : Yes
Forced : No

Text #2
ID : 5
Format : UTF-8
Codec ID : S_TEXT/UTF8
Codec ID/Info : UTF-8 Plain Text
Duration : 2 h 7 min
Bit rate : 53 b/s
Count of elements : 1845
Stream size : 50.1 KiB (0%)
Title : English SDH (Original)
Language : English
Default : No
Forced : No

Text #3
ID : 6
Format : UTF-8
Codec ID : S_TEXT/UTF8
Codec ID/Info : UTF-8 Plain Text
Duration : 1 h 47 min
Bit rate : 0 b/s
Count of elements : 8
Stream size : 136 Bytes (0%)
Title : English Forced (Dub)
Language : English
Default : No
Forced : Yes

Text #4
ID : 7
Format : UTF-8
Codec ID : S_TEXT/UTF8
Codec ID/Info : UTF-8 Plain Text
Duration : 2 h 0 min
Bit rate : 46 b/s
Count of elements : 1748
Stream size : 41.3 KiB (0%)
Title : English (Dub)
Language : English
Default : No
Forced : No

Text #5
ID : 8
Format : UTF-8
Codec ID : S_TEXT/UTF8
Codec ID/Info : UTF-8 Plain Text
Duration : 2 h 7 min
Bit rate : 55 b/s
Count of elements : 2159
Stream size : 52.0 KiB (0%)
Title : English SDH (Dub)
Language : English
Default : No
Forced : No





1 个附件 售价 大小 下载 时间

No.Escapes.2020.RUSSIAN.1080p.AMZN.WEBRip.DD5.1.x264-CBON.torrent 0 金币 22.28K 378 次 4天前

#1楼
发帖时间:2022-06-23 17:37:49   |   回复数:0
游客组