squallzhao
一代宗师

[更 早] [英国] [喜剧] [BD-1080P] 懵侦探 Adventures.of.a.Private.Eye.1977.1080p.BluRay.x264-GAZER 9.32GB

-->

帖子完整标题:懵侦探 Adventures.of.a.Private.Eye.1977.1080p.BluRay.x264-GAZER 9.32GB



◎译  名 懵侦探
◎片  名 Adventures of a Private Eye
◎年  代 1977
◎产  地 英国
◎类  别 喜剧 / 犯罪
◎语  言 英语
◎IMDb链接 https://www.imdb.com/title/tt0075638/
◎豆瓣链接 https://movie.douban.com/subject/4851584/
◎片  长 96 分钟
◎导  演 Stanley A. Long Stanley A. Long (id:1037790)
◎编  剧 迈克尔·阿姆斯特朗 Michael Armstrong (id:1057953)
      Stanley A. Long Stanley A. Long (id:1037790)
◎演  员 克里斯托弗·尼尔 Christopher Neil (id:1332011)
      苏茜·肯道尔 Suzy Kendall (id:1014075)
      哈里·H·考伯特 Harry H. Corbett (id:1032408)
      黛安娜·多丝 Diana Dors (id:1027959)
      Fred Emney Fred Emney (id:1005964)
      利兹·弗雷泽 Liz Fraser (id:1086073)
      艾琳·汉铎 Irene Handl (id:1100343)
      伊恩·拉文德 Ian Lavender (id:1111548)
      Julian Orchard Julian Orchard (id:1136005)
      乔恩·帕特维 Jon Pertwee (id:1133647)
      阿德里安娜·波斯塔 Adrienne Posta (id:1136869)
      Anna Quayle Anna Quayle (id:1142912)
      William Rushton William Rushton (id:1144718)
      维罗妮卡·朵兰 Veronica Doran (id:1079497)
      弥尔顿·瑞德 Milton Reid (id:1146048)
      Linda Regan Linda Regan (id:1146226)
      安吉拉·斯库拉 Angela Scoular (id:1146390)
      Nicholas Young Nicholas Young (id:1165232)
      Shaw Taylor Shaw Taylor (id:1158400)
      Peter Moran Peter Moran (id:1135864)
      格雷厄姆·阿什利 Graham Ashley (id:1059222)
      乔纳森·亚当斯 Jonathan Adams (id:1061065)
      Richard Caldicot Richard Caldicot (id:1071219)
      Ruth Kettlewell Ruth Kettlewell (id:1104332)
      迈克尔·阿姆斯特朗 Michael Armstrong (id:1057953)
      Stanley A. Long Stanley A. Long (id:1037790)
      Marsha Lewis Marsha Lewis (id:1289965)

◎简  介
  While a private detective is away on vacation, his not particularly bright assistant takes it upon himself to "solve" a case that comes in. Complications ensue.

Video
ID : 1
Format : AVC
Format/Info : Advanced Video Codec
Format profile : [email protected]
Format settings : CABAC / 4 Ref Frames
Format settings, CABAC : Yes
Format settings, Reference frames : 4 frames
Codec ID : V_MPEG4/ISO/AVC
Duration : 1 h 36 min
Bit rate : 12.9 Mb/s
Width : 1 918 pixels
Height : 1 036 pixels
Display aspect ratio : 1.85:1
Frame rate mode : Constant
Frame rate : 23.976 (24000/1001/189150) FPS
Color space : YUV
Chroma subsampling : 4:2:0
Bit depth : 8 bits
Scan type : Progressive
Bits/(Pixel*Frame) : 0.271
Stream size : 8.72 GiB (94%)
Writing library : x264 core 164 r3094 bfc87b7
Encoding settings : cabac=1 / ref=4 / deblock=1:-3:-3 / analyse=0x3:0x133 / me=umh / subme=10 / psy=1 / psy_rd=1.20:0.00 / mixed_ref=1 / me_range=24 / chroma_me=1 / trellis=2 / 8x8dct=1 / cqm=0 / deadzone=21,11 / fast_pskip=0 / chroma_qp_offset=-2 / threads=24 / lookahead_threads=4 / sliced_threads=0 / nr=0 / decimate=0 / interlaced=0 / bluray_compat=0 / constrained_intra=0 / bframes=8 / b_pyramid=2 / b_adapt=2 / b_bias=0 / direct=3 / weightb=1 / open_gop=0 / weightp=2 / keyint=250 / keyint_min=23 / scenecut=40 / intra_refresh=0 / rc_lookahead=60 / rc=crf / mbtree=1 / crf=22.0 / qcomp=0.60 / qpmin=0 / qpmax=69 / qpstep=4 / ip_ratio=1.40 / aq=3:0.90
Default : Yes
Forced : No
Color range : Limited
Matrix coefficients : BT.709

Audio #1
ID : 2
Format : FLAC
Format/Info : Free Lossless Audio Codec
Codec ID : A_FLAC
Duration : 1 h 36 min
Bit rate mode : Variable
Bit rate : 646 kb/s
Channel(s) : 1 channel
Channel layout : C
Sampling rate : 48.0 kHz
Frame rate : 11.719 FPS (4096 SPF)
Bit depth : 24 bits
Compression mode : Lossless
Stream size : 447 MiB (5%)
Writing library : libFLAC 1.3.3 (UTC 2019-08-04)
Language : English
Default : Yes
Forced : No

Audio #2
ID : 3
Format : AAC LC
Format/Info : Advanced Audio Codec Low Complexity
Codec ID : A_AAC-2
Duration : 1 h 36 min
Bit rate : 74.8 kb/s
Channel(s) : 1 channel
Channel layout : C
Sampling rate : 48.0 kHz
Frame rate : 46.875 FPS (1024 SPF)
Compression mode : Lossy
Delay relative to video : 20 ms
Stream size : 51.7 MiB (1%)
Title : Commentary
Language : English
Default : No
Forced : No

Audio #3
ID : 4
Format : AAC LC
Format/Info : Advanced Audio Codec Low Complexity
Codec ID : A_AAC-2
Duration : 1 h 36 min
Bit rate : 149 kb/s
Channel(s) : 2 channels
Channel layout : L R
Sampling rate : 48.0 kHz
Frame rate : 46.875 FPS (1024 SPF)
Compression mode : Lossy
Delay relative to video : 20 ms
Stream size : 103 MiB (1%)
Title : Commentary
Language : English
Default : No
Forced : No

Text
ID : 5
Format : PGS
Muxing mode : zlib
Codec ID : S_HDMV/PGS
Codec ID/Info : Picture based subtitle format used on BDs/HD-DVDs
Duration : 1 h 36 min
Bit rate : 49.2 kb/s
Count of elements : 3068
Stream size : 33.9 MiB (0%)
Title : SDH
Language : English
Default : No
Forced : No

Menu
00:00:00.000 : Chapter 01
00:00:10.052 : Chapter 02
00:13:08.204 : Chapter 03
00:20:15.923 : Chapter 04
00:27:06.959 : Chapter 05
00:36:52.377 : Chapter 06
00:46:57.857 : Chapter 07
00:59:46.583 : Chapter 08
01:07:58.157 : Chapter 09
01:18:26.410 : Chapter 10
01:27:15.897 : Chapter 11
01:36:38.876 : Chapter 12





1 个附件 售价 大小 下载 时间

Adventures.of.a.Private.Eye.1977.1080p.BluRay.x264-GAZER.torrent 0 金币 24.06K 420 次 13天前

#1楼
发帖时间:2022-05-14 17:10:08   |   回复数:0
游客组