travismk
一代宗师

[2014] [其它] [剧情] [WEB-1080P] 奇迹 The.Wonders.2014.ITALIAN.1080p.AMZN.WEBRip.DDP5.1.x264-WELP 7.76GB

-->

帖子完整标题:奇迹 The.Wonders.2014.ITALIAN.1080p.AMZN.WEBRip.DDP5.1.x264-WELP 7.76GB



◎译  名 奇迹 / 蜂蜜之夏(港 / 台) / The Wonders
◎片  名 Le meraviglie
◎年  代 2014
◎产  地 意大利 / 德国 / 瑞士
◎类  别 剧情
◎语  言 意大利语 / 法语 / 德语 / 英语
◎上映日期 2014-05-18(戛纳电影节) / 2014-05-22(意大利)
◎IMDb链接 https://www.imdb.com/title/tt3044244/
◎豆瓣评分 7.5/10 (6464人评价)
◎豆瓣链接 https://movie.douban.com/subject/25733490/
◎片  长 110分钟
◎导  演 阿莉切·罗尔瓦赫尔 Alice Rohrwacher (id:1338597)
◎编  剧 阿莉切·罗尔瓦赫尔 Alice Rohrwacher (id:1338597)
◎演  员 阿尔芭·罗尔瓦赫尔 Alba Rohrwacher (id:1259070)
      玛格丽特·提塞尔 Margarete Tiesel (id:1206499)
      安德烈·赫尼克 André Hennicke (id:1050195)
      莎宾·蒂莫提欧 Sabine Timoteo (id:1000901)
      莫妮卡·贝鲁奇 Monica Bellucci (id:1025156)
      阿涅塞·格拉齐亚尼 Agnese Graziani (id:1400919)
      海莲娜·勒瓦 Hélène Louvart (id:1393058)

◎简  介
  影片讲述了一对夫妻带着四个女儿,在靠近海边的独立小农庄里,依靠养蜂过着自给自足的独立生活,远离城市和社会人群。然而有一天,一个德国少年犯在重新融入社会 计划下进入到她们的生活里,同时,一个名叫《神奇村庄》的真人秀节目也在这里选景拍摄,片中有美丽性感的主持人……这一切新鲜事物,打乱了她们艰苦却简单平静的生活,尤其是进入青春期的大女儿吉索米拉,对外面的缤纷世界充满渴望。

◎获奖情况 (共2项)
  第67届戛纳电影节 (2014)
  主竞赛单元 金棕榈奖(提名)
   └──阿莉切·罗尔瓦赫尔 (id:1338597)
  主竞赛单元 评审团大奖
   └──阿莉切·罗尔瓦赫尔 (id:1338597)

Video
ID : 1
Format : AVC
Format/Info : Advanced Video Codec
Format profile : [email protected]
Format settings : CABAC / 4 Ref Frames
Format settings, CABAC : Yes
Format settings, Reference frames : 4 frames
Codec ID : V_MPEG4/ISO/AVC
Duration : 1 h 51 min
Bit rate mode : Constant
Bit rate : 9 319 kb/s
Nominal bit rate : 10 000 kb/s
Width : 1 920 pixels
Height : 1 040 pixels
Display aspect ratio : 1.85:1
Frame rate mode : Constant
Frame rate : 24.000 FPS
Color space : YUV
Chroma subsampling : 4:2:0
Bit depth : 8 bits
Scan type : Progressive
Bits/(Pixel*Frame) : 0.194
Stream size : 7.26 GiB (94%)
Default : Yes
Forced : No
Color range : Limited
Color primaries : BT.709
Transfer characteristics : BT.709
Matrix coefficients : BT.709

Audio
ID : 2
Format : E-AC-3
Format/Info : Enhanced AC-3
Commercial name : Dolby Digital Plus
Codec ID : A_EAC3
Duration : 1 h 51 min
Bit rate mode : Constant
Bit rate : 640 kb/s
Channel(s) : 6 channels
Channel layout : L R C LFE Ls Rs
Sampling rate : 48.0 kHz
Frame rate : 31.250 FPS (1536 SPF)
Compression mode : Lossy
Stream size : 511 MiB (6%)
Language : Italian
Service kind : Complete Main
Default : Yes
Forced : No

Text #1
ID : 3
Format : UTF-8
Codec ID : S_TEXT/UTF8
Codec ID/Info : UTF-8 Plain Text
Duration : 1 h 43 min
Bit rate : 35 b/s
Count of elements : 981
Stream size : 27.0 KiB (0%)
Language : English
Default : Yes
Forced : No

Text #2
ID : 4
Format : UTF-8
Codec ID : S_TEXT/UTF8
Codec ID/Info : UTF-8 Plain Text
Duration : 1 h 43 min
Bit rate : 40 b/s
Count of elements : 1192
Stream size : 30.5 KiB (0%)
Title : Spanish (Latin American)
Language : Spanish
Default : No
Forced : No

Text #3
ID : 5
Format : UTF-8
Codec ID : S_TEXT/UTF8
Codec ID/Info : UTF-8 Plain Text
Duration : 1 h 43 min
Bit rate : 35 b/s
Count of elements : 1010
Stream size : 27.1 KiB (0%)
Title : Spanish (Spain)
Language : Spanish
Default : No
Forced : No

Text #4
ID : 6
Format : UTF-8
Codec ID : S_TEXT/UTF8
Codec ID/Info : UTF-8 Plain Text
Duration : 1 h 44 min
Bit rate : 39 b/s
Count of elements : 996
Stream size : 30.5 KiB (0%)
Title : Portuguese (Brazilian)
Language : Portuguese
Default : No
Forced : No

Text #5
ID : 7
Format : UTF-8
Codec ID : S_TEXT/UTF8
Codec ID/Info : UTF-8 Plain Text
Duration : 1 h 51 min
Bit rate : 29 b/s
Count of elements : 1199
Stream size : 24.2 KiB (0%)
Title : Traditional
Language : Chinese
Default : No
Forced : No

Text #6
ID : 8
Format : UTF-8
Codec ID : S_TEXT/UTF8
Codec ID/Info : UTF-8 Plain Text
Duration : 1 h 44 min
Bit rate : 39 b/s
Count of elements : 1014
Stream size : 30.4 KiB (0%)
Language : Turkish
Default : No
Forced : No





1 个附件 售价 大小 下载 时间

The.Wonders.2014.ITALIAN.1080p.AMZN.WEBRip.DDP5.1.x264-WELP.torrent 0 金币 20.05K 966 次 13天前

#1楼
发帖时间:2022-05-14 14:54:47   |   回复数:0
游客组