travismk
一代宗师

[2020] [其它] [剧情] [WEB-1080P] 鸟类变形记 The.Metamorphosis.of.Birds.2020.PORTUGUESE.1080p.AMZN.WEBRip.DDP5.1.x264-C

-->

帖子完整标题:鸟类变形记 The.Metamorphosis.of.Birds.2020.PORTUGUESE.1080p.AMZN.WEBRip.DDP5.1.x264-Cinefeel 7.13GB



◎译  名 鸟类变形记 / 鸟是海与树的孩子(台) / The Metamorphosis of Birds
◎片  名 A Metamorfose dos Pássaros
◎年  代 2020
◎产  地 葡萄牙
◎类  别 剧情 / 纪录片 / 传记
◎语  言 葡萄牙语
◎上映日期 2020-02-28(柏林电影节) / 2020-05-28(葡萄牙)
◎IMDb链接 https://www.imdb.com/title/tt11625100/
◎豆瓣评分 8.2/10 (3427人评价)
◎豆瓣链接 https://movie.douban.com/subject/34952486/
◎片  长 100分钟
◎导  演 卡塔里娜·瓦斯康塞洛斯 Catarina Vasconcelos (id:1432421)
◎编  剧 卡塔里娜·瓦斯康塞洛斯 Catarina Vasconcelos (id:1432421)
◎演  员 卡塔里娜·瓦斯康塞洛斯 Catarina Vasconcelos (id:1432421)
      Pedro Fernandes Duarte (id:1227210)
      卡塔里娜·瓦斯康塞洛斯 Catarina Vasconcelos (id:1432421)

◎简  介
  男人如海,远飏漂浪;女人是树,荫蔽家园。这是一则反溯家族记忆的私密创作,从最初两人的深情往复书简,顺此而成的生命诞造,以及其后伴怀自然、温柔照料的哺育子女。在女人温柔如巨树分枝的照料之下,孩子如鸟,学习飞翔,体会那苍穹万物。但在巨树倒下的一刻,雏鸟被迫变形成长,从此在漫长失亲的岁月里,想念至亲、凭悼失落的自己。
以印象派画风为骨干,佐以16mm 胶卷的有机颗粒影像,新锐导演瓦斯康丝勒借着家族物件、亲录原声,与戏剧式的重建演出,爬梳家族父执辈几尽失落的记忆。她邀请家人亲身参与演出,对应不同人声的旁白,以音划分离营造出想像空间,让全片在深刻幽微的生命沉思下,拥有轻盈的流动感,组成一出构图如画、探讨永恒的喧嚣疗愈之作。

◎获奖情况 (共4项)
  第70届柏林国际电影节 (2020)
  遇见单元 最佳影片(提名)
   └──卡塔里娜·瓦斯康塞洛斯 (id:1432421)

  第68届圣塞巴斯蒂安国际电影节 (2020)
  开放电影大奖
   └──卡塔里娜·瓦斯康塞洛斯 (id:1432421)

  第22届台北电影节 (2020)
  国际新导演竞赛 评审团特别奖
   └──卡塔里娜·瓦斯康塞洛斯 (id:1432421)
  国际新导演竞赛(提名)
   └──卡塔里娜·瓦斯康塞洛斯 (id:1432421)

Video
ID : 1
Format : AVC
Format/Info : Advanced Video Codec
Format profile : [email protected]
Format settings : CABAC / 4 Ref Frames
Format settings, CABAC : Yes
Format settings, Reference frames : 4 frames
Codec ID : V_MPEG4/ISO/AVC
Duration : 1 h 41 min
Bit rate mode : Constant
Bit rate : 9 435 kb/s
Nominal bit rate : 10 000 kb/s
Width : 1 440 pixels
Height : 1 080 pixels
Display aspect ratio : 4:3
Frame rate mode : Constant
Frame rate : 25.000 FPS
Color space : YUV
Chroma subsampling : 4:2:0
Bit depth : 8 bits
Scan type : Progressive
Bits/(Pixel*Frame) : 0.243
Stream size : 6.68 GiB (94%)
Default : Yes
Forced : No
Color range : Limited
Color primaries : BT.709
Transfer characteristics : BT.709
Matrix coefficients : BT.709

Audio
ID : 2
Format : E-AC-3
Format/Info : Enhanced AC-3
Commercial name : Dolby Digital Plus
Codec ID : A_EAC3
Duration : 1 h 41 min
Bit rate mode : Constant
Bit rate : 640 kb/s
Channel(s) : 6 channels
Channel layout : L R C LFE Ls Rs
Sampling rate : 48.0 kHz
Frame rate : 31.250 FPS (1536 SPF)
Compression mode : Lossy
Stream size : 464 MiB (6%)
Language : Portuguese
Service kind : Complete Main
Default : Yes
Forced : No

Text
ID : 3
Format : UTF-8
Codec ID : S_TEXT/UTF8
Codec ID/Info : UTF-8 Plain Text
Duration : 1 h 36 min
Bit rate : 58 b/s
Count of elements : 845
Stream size : 41.7 KiB (0%)
Title : Soft English Subtitles
Language : English
Default : No
Forced : No





1 个附件 售价 大小 下载 时间

The.Metamorphosis.of.Birds.2020.PORTUGUESE.1080p.AMZN.WEBRip.DDP5.1.x264-Cinefeel.torrent 0 金币 18.55K 504 次 13天前

#1楼
发帖时间:2022-05-14 14:42:42   |   回复数:0
游客组