fg603603
一代宗师

[2017] [其它] [剧情] [WEB-1080P] 報告老師!怪怪怪怪物! Mon.Mon.Mon.Monsters.2017.CHINESE.1080p.AMZN.WEBRip.DD5.1.x264-NOGRP

-->

帖子完整标题:報告老師!怪怪怪怪物! Mon.Mon.Mon.Monsters.2017.CHINESE.1080p.AMZN.WEBRip.DD5.1.x264-NOGRP 3.85GB



◎译  名 报告老师!怪怪怪怪物!/Mon Mon Mon Monsters
◎片  名 報告老師!怪怪怪怪物!
◎年  代 2017
◎产  地 中国台湾
◎类  别 剧情 / 恐怖
◎语  言 汉语普通话
◎上映日期 2017-04-23(中国香港电影节) / 2017-07-28(中国台湾)
◎豆瓣评分 6.7/10 from 17287 users
◎豆瓣链接 https://movie.douban.com/subject/26720627/
◎片  长 112分钟
◎导  演 九把刀 Giddens Ko
◎编  剧 九把刀 Giddens Ko
◎主  演 邓育凯 Yu Kai Teng
      蔡凡熙 Kent Tsai
      陈珮骐 Carolyn Chan
      刘奕儿 Eugenie Liu
      林姵妡 Pei Xin Lin
      赖浚程 James Lai
      陶柏萌 Meng Tao
      梁洳瑄 Bonnie Liang
      乾德门 Tak-Mun Kon
      禾浩辰 Bruce Hung
      蔡昌宪 Chang-Hsien Tsai
      宋芸桦 Vivian Sung
      柯震东 Kai Ko
      侯彦西 Yen Hsi Hou
      周亭羽 Tiffany Chou

◎简  介

  《怪物》描述邓育凯饰演的好学生长期被班上风云人物三人组作弄,某天四个人意外发现吃人的人形小怪物,进而延伸出“霸凌”议题,此主题也是九把刀十多年前看完瑞典电影《邪恶》受到启发后,一直想探讨的主题。原本他想以1500万台币低成本拍成“霸凌伪纪录片”,后期转变成剧情特效片,不但在中影搭棚,也特地在西门钉封街拍动作戏,制作费提高到一亿台币,大部份成本投入特效制作。九把刀透露,原本电影设定走写实暴力路线,但自己和素人演员无法掌握,最后决定做自己走回黑色幽默风格。

◎获奖情况

  第54届台北金马影展 ?(2017)
  金马奖最佳音效 杜均堂?/?吴书瑶?/?杜笃之
  金马奖最佳视觉效果(提名) 包正勋?/?黄美青
  
  第12届亚洲电影大奖 ?(2018)
  最佳剪接(提名) 李念修
  最佳视觉效果(提名) 包正勋?/?黄美青
  最佳音响(提名) 杜均堂?/?吴书瑶?/?杜笃之
  
  第4届豆瓣电影年度榜单 ?(2017)
  评分最高的恐怖片(提名)

Video
ID : 1
Format : AVC
Format/Info : Advanced Video Codec
Format profile : [email protected]
Format settings : CABAC / 5 Ref Frames
Format settings, CABAC : Yes
Format settings, Reference frames : 5 frames
Codec ID : V_MPEG4/ISO/AVC
Duration : 1 h 52 min
Bit rate : 4 538 kb/s
Width : 1 918 pixels
Height : 802 pixels
Display aspect ratio : 2.40:1
Frame rate mode : Constant
Frame rate : 24.000 FPS
Color space : YUV
Chroma subsampling : 4:2:0
Bit depth : 8 bits
Scan type : Progressive
Bits/(Pixel*Frame) : 0.123
Stream size : 3.55 GiB (92%)
Default : Yes
Forced : No
Color range : Limited
Color primaries : BT.709
Transfer characteristics : BT.709
Matrix coefficients : BT.709

Audio
ID : 2
Format : AC-3
Format/Info : Audio Coding 3
Commercial name : Dolby Digital
Codec ID : A_AC3
Duration : 1 h 52 min
Bit rate mode : Constant
Bit rate : 384 kb/s
Channel(s) : 6 channels
Channel layout : L R C LFE Ls Rs
Sampling rate : 48.0 kHz
Frame rate : 31.250 FPS (1536 SPF)
Compression mode : Lossy
Stream size : 308 MiB (8%)
Language : Chinese
Service kind : Complete Main
Default : Yes
Forced : No

Text #1
ID : 3
Format : UTF-8
Codec ID : S_TEXT/UTF8
Codec ID/Info : UTF-8 Plain Text
Duration : 1 h 36 min
Bit rate : 28 b/s
Count of elements : 941
Stream size : 20.1 KiB (0%)
Language : English
Default : No
Forced : No

Text #2
ID : 4
Format : UTF-8
Codec ID : S_TEXT/UTF8
Codec ID/Info : UTF-8 Plain Text
Duration : 1 h 36 min
Bit rate : 28 b/s
Count of elements : 978
Stream size : 20.3 KiB (0%)
Language : Chinese
Default : No
Forced : No

Text #3
ID : 5
Format : UTF-8
Codec ID : S_TEXT/UTF8
Codec ID/Info : UTF-8 Plain Text
Duration : 1 h 36 min
Bit rate : 28 b/s
Count of elements : 978
Stream size : 20.3 KiB (0%)
Language : Chinese
Default : No
Forced : No





1 个附件 售价 大小 下载 时间

Mon.Mon.Mon.Monsters.2017.CHINESE.1080p.AMZN.WEBRip.DD5.1.x264-NOGRP.torrent 0 金币 19.93K 4046 次 7月前

#1楼
发帖时间:2022-01-15 11:54:16   |   回复数:1
黑色幽默66
武林高手
感谢楼主分享!支持!
7月前 #2楼
游客组