travismk
一代宗师

[更 早] [欧美] [剧情] [4K-原盘] 大逃亡/第三集中营 The.Great.Escape.1963.2160p.BluRay.REMUX.HEVC.SDR.DTS-HD.MA.5.1-FGT 86

-->

帖子完整标题:大逃亡/第三集中营 The.Great.Escape.1963.2160p.BluRay.REMUX.HEVC.SDR.DTS-HD.MA.5.1-FGT 86.03GB



◎译  名 大逃亡/第三集中营(台)/绝处逢生/胜利大逃亡/胜利逃亡/龙虎榜(港)
◎片  名 The Great Escape
◎年  代 1963
◎产  地 美国
◎类  别 剧情 / 历史 / 冒险
◎语  言 英语,德语,法语,俄语,西班牙语
◎上映日期 1963-07-04(美国)
◎豆瓣评分 8.3/10 from 8310 users
◎豆瓣链接 https://movie.douban.com/subject/1294947/
◎片  长 172分钟
◎导  演 约翰·斯特奇斯 John Sturges
◎编  剧 保罗·布里克西尔 Paul Brickhill / 詹姆斯·克拉韦尔 James Clavell / 威廉·赖利·伯内特 W.R. Burnett
◎主  演 史蒂夫·麦奎因 Steve McQueen
      詹姆斯·加纳 James Garner
      理查德·阿滕伯勒 Richard Attenborough
      詹姆斯·唐纳德 James Donald
      查尔斯·布朗森 Charles Bronson
      唐纳德·普利森斯 Donald Pleasence
      詹姆斯·柯本 James Coburn
      汉斯·海西默 Hannes Messemer
      大卫·麦考姆 David McCallum
      戈登·杰克逊 Gordon Jackson
      约翰·莱顿 John Leyton
      Angus Lennie Angus Lennie
      奈杰尔·斯托克 Nigel Stock
      Robert Graf Robert Graf
      裘德·泰勒 Jud Taylor
      Hans Reiser Hans Reiser
      哈里·里鲍尔 Harry Riebauer
      威廉·拉塞尔 William Russell
      Robert Freitag Robert Freitag
      Ulrich Beiger Ulrich Beiger
      乔治·迈克尔 George Mikell
      劳伦斯·蒙田 Lawrence Montaigne
      Til Kiwe Til Kiwe
      海因茨·韦斯 Heinz Weiss
      汤姆·亚当斯 Tom Adams
      卡尔-奥托·阿伯提 Karl-Otto Alberty
      罗伯特·格拉夫 Robert Graf

◎简  介

  二战期间,德军的战俘营里,每个人都在渴望着自由。美国人希尔(史蒂夫?麦奎因 Steve McQueen 饰)在进入战俘营的第一天起,就一直计划着越狱。虽然他的十多次逃跑都以失败告终,但希尔从未放弃。这次,希尔和英国军官罗杰计划秘密挖掘隧道带领250人一起越狱。所有人都贡献出了自己的一分力配合这次计划,有人专门负责制作大家逃跑后需要穿着的平民服装、有人负责做假证件、还有人负责储备食品等等。然而就在他们的隧道大功告成那天,隧道却被德军发现了。逃跑计划的日期一天天临近,希尔他们又开始新一轮的挖掘工作。

◎获奖情况

  第36届奥斯卡金像奖 ?(1964)
  最佳剪辑(提名) 费里斯·韦伯斯特
  
  第21届金球奖 ?(1964)
  电影类最佳剧情片(提名)

Video
ID : 1
ID in the original source medium : 4113 (0x1011)
Format : HEVC
Format/Info : High Efficiency Video Coding
Format profile : Main [email protected]@High
Codec ID : V_MPEGH/ISO/HEVC
Duration : 2 h 52 min
Bit rate : 64.0 Mb/s
Width : 3 840 pixels
Height : 2 160 pixels
Display aspect ratio : 16:9
Frame rate mode : Constant
Frame rate : 23.976 (24000/1001/189150) FPS
Color space : YUV
Chroma subsampling : 4:2:0 (Type 2)
Bit depth : 10 bits
Bits/(Pixel*Frame) : 0.322
Stream size : 77.0 GiB (89%)
Writing library : ATEME Titan File 3.9.7 (4.9.7.0)
Language : English
Default : No
Forced : No
Color range : Limited
Color primaries : BT.709
Transfer characteristics : BT.709
Matrix coefficients : BT.709
Original source medium : Blu-ray

Audio #1
ID : 2
ID in the original source medium : 4352 (0x1100)
Format : DTS XLL
Format/Info : Digital Theater Systems
Commercial name : DTS-HD Master Audio
Codec ID : A_DTS
Duration : 2 h 52 min
Bit rate mode : Variable
Bit rate : 1 891 kb/s
Channel(s) : 6 channels
Channel layout : C L R Ls Rs LFE
Sampling rate : 48.0 kHz
Frame rate : 93.750 FPS (512 SPF)
Bit depth : 24 bits
Compression mode : Lossless
Stream size : 2.28 GiB (3%)
Title : DTS-HD MA 5.1
Language : English
Default : Yes
Forced : No
Original source medium : Blu-ray

Audio #2
ID : 3
Format : AC-3
Format/Info : Audio Coding 3
Commercial name : Dolby Digital
Codec ID : A_AC3
Duration : 2 h 52 min
Bit rate mode : Constant
Bit rate : 640 kb/s
Channel(s) : 6 channels
Channel layout : L R C LFE Ls Rs
Sampling rate : 48.0 kHz
Frame rate : 31.250 FPS (1536 SPF)
Compression mode : Lossy
Stream size : 788 MiB (1%)
Title : DD 5.1
Language : English
Service kind : Complete Main
Default : No
Forced : No

Audio #3
ID : 4
ID in the original source medium : 4353 (0x1101)
Format : DTS XLL
Format/Info : Digital Theater Systems
Commercial name : DTS-HD Master Audio
Codec ID : A_DTS
Duration : 2 h 52 min
Bit rate mode : Variable
Bit rate : 1 835 kb/s
Channel(s) : 2 channels
Channel layout : L R
Sampling rate : 48.0 kHz
Frame rate : 93.750 FPS (512 SPF)
Bit depth : 24 bits
Compression mode : Lossless
Stream size : 2.21 GiB (3%)
Title : DTS-HD MA 2.0
Language : English
Default : No
Forced : No
Original source medium : Blu-ray

Audio #4
ID : 5
ID in the original source medium : 4354 (0x1102)
Format : DTS XLL
Format/Info : Digital Theater Systems
Commercial name : DTS-HD Master Audio
Codec ID : A_DTS
Duration : 2 h 52 min
Bit rate mode : Variable
Bit rate : 1 570 kb/s
Channel(s) : 2 channels
Channel layout : L R
Sampling rate : 48.0 kHz
Frame rate : 93.750 FPS (512 SPF)
Bit depth : 16 bits
Compression mode : Lossless
Stream size : 1.89 GiB (2%)
Title : DTS-HD MA 2.0
Language : English
Default : No
Forced : No
Original source medium : Blu-ray

Audio #5
ID : 6
ID in the original source medium : 4355 (0x1103)
Format : DTS XLL
Format/Info : Digital Theater Systems
Commercial name : DTS-HD Master Audio
Codec ID : A_DTS
Duration : 2 h 52 min
Bit rate mode : Variable
Bit rate : 1 558 kb/s
Channel(s) : 2 channels
Channel layout : L R
Sampling rate : 48.0 kHz
Frame rate : 93.750 FPS (512 SPF)
Bit depth : 16 bits
Compression mode : Lossless
Stream size : 1.87 GiB (2%)
Title : DTS-HD MA 2.0
Language : English
Default : No
Forced : No
Original source medium : Blu-ray

Text #1
ID : 7
Format : UTF-8
Codec ID : S_TEXT/UTF8
Codec ID/Info : UTF-8 Plain Text
Duration : 2 h 45 min
Bit rate : 38 b/s
Count of elements : 1362
Stream size : 47.1 KiB (0%)
Language : English
Default : Yes
Forced : No

Text #2
ID : 8
ID in the original source medium : 4608 (0x1200)
Format : PGS
Muxing mode : zlib
Codec ID : S_HDMV/PGS
Codec ID/Info : Picture based subtitle format used on BDs/HD-DVDs
Duration : 2 h 45 min
Bit rate : 19.4 kb/s
Count of elements : 2808
Stream size : 22.9 MiB (0%)
Language : English
Default : No
Forced : No
Original source medium : Blu-ray

Menu
00:00:00.000 : en:Chapter 01
00:06:58.418 : en:Chapter 02
00:22:12.331 : en:Chapter 03
00:44:09.647 : en:Chapter 04
01:02:12.729 : en:Chapter 05
01:25:38.133 : en:Chapter 06
01:44:45.279 : en:Chapter 07
02:02:54.367 : en:Chapter 08
02:27:15.827 : en:Chapter 09
02:40:30.621 : en:Chapter 10
02:52:13.323 : en:Chapter 11





1 个附件 售价 大小 下载 时间

The.Great.Escape.1963.2160p.BluRay.REMUX.HEVC.SDR.DTS-HD.MA.5.1-FGT.torrent 0 金币 108.19K 581 次 14天前

#1楼
发帖时间:2022-01-15 09:31:45   |   回复数:0
游客组