travismk
一代宗师

[更 早] [欧美] [惊悚] [BD-1080P] 捕鹰 The.Pursuit.of.DB.Cooper.1981.1080p.BluRay.x264.AAC2.0-HANDJOB 7.69GB

-->

帖子完整标题:捕鹰 The.Pursuit.of.DB.Cooper.1981.1080p.BluRay.x264.AAC2.0-HANDJOB 7.69GB



◎译  名 捕鹰
◎片  名 The Pursuit of D.B. Cooper
◎年  代 1981
◎产  地 美国
◎类  别 惊悚 / 犯罪 / 冒险
◎语  言 英语
◎上映日期 1981-11-13
◎豆瓣评分 /10 from 0 users
◎豆瓣链接 https://movie.douban.com/subject/1293063/
◎片  长 100 分钟
◎导  演 罗杰·斯波蒂斯伍德 Roger Spottiswoode
◎编  剧 杰弗里·艾伦·菲斯金 Jeffrey Alan Fiskin

◎简  介

  本片根据美国史上最著名也是最神秘,至今仍未破获的飞机劫案改编而成。劫案主角就是大名鼎鼎的D.B COOPER,在打劫后只身从一万公尺高空跳伞脱逃,此后美国警方与FBI巡查多年也并未抓获真凶。
  
  http://zhidao.baidu.com/question/59706193.html?si=1

Video
ID : 1
Format : AVC
Format/Info : Advanced Video Codec
Format profile : [email protected]
Format settings : CABAC / 4 Ref Frames
Format settings, CABAC : Yes
Format settings, Reference frames : 4 frames
Codec ID : V_MPEG4/ISO/AVC
Duration : 1 h 40 min
Bit rate : 10.7 Mb/s
Width : 1 920 pixels
Height : 1 036 pixels
Display aspect ratio : 1.85:1
Frame rate mode : Constant
Frame rate : 23.976 (24000/1001/189150) FPS
Color space : YUV
Chroma subsampling : 4:2:0
Bit depth : 8 bits
Scan type : Progressive
Bits/(Pixel*Frame) : 0.225
Stream size : 7.53 GiB (98%)
Writing library : x264 core 163 r3060 5db6aa6
Encoding settings : cabac=1 / ref=4 / deblock=1:-3:-3 / analyse=0x3:0x133 / me=umh / subme=10 / psy=1 / psy_rd=1.00:0.00 / mixed_ref=1 / me_range=32 / chroma_me=1 / trellis=2 / 8x8dct=1 / cqm=0 / deadzone=21,11 / fast_pskip=0 / chroma_qp_offset=-2 / threads=24 / lookahead_threads=6 / sliced_threads=0 / nr=0 / decimate=0 / interlaced=0 / bluray_compat=0 / constrained_intra=0 / bframes=16 / b_pyramid=2 / b_adapt=2 / b_bias=0 / direct=3 / weightb=1 / open_gop=0 / weightp=2 / keyint=240 / keyint_min=24 / scenecut=40 / intra_refresh=0 / rc_lookahead=60 / rc=crf / mbtree=0 / crf=21.8 / qcomp=0.60 / qpmin=0 / qpmax=69 / qpstep=4 / vbv_maxrate=62500 / vbv_bufsize=78125 / crf_max=0.0 / nal_hrd=none / filler=0 / ip_ratio=1.40 / pb_ratio=1.30 / aq=2:1.00
Default : Yes
Forced : No
Color range : Limited
Color primaries : BT.709
Transfer characteristics : BT.709
Matrix coefficients : BT.709

Audio #1
ID : 2
Format : AAC LC
Format/Info : Advanced Audio Codec Low Complexity
Codec ID : A_AAC-2
Duration : 1 h 40 min
Bit rate : 127 kb/s
Channel(s) : 2 channels
Channel layout : L R
Sampling rate : 48.0 kHz
Frame rate : 46.875 FPS (1024 SPF)
Compression mode : Lossy
Delay relative to video : -21 ms
Stream size : 91.5 MiB (1%)
Language : English
Default : Yes
Forced : No

Audio #2
ID : 3
Format : AAC LC
Format/Info : Advanced Audio Codec Low Complexity
Codec ID : A_AAC-2
Duration : 1 h 40 min
Bit rate : 80.5 kb/s
Channel(s) : 2 channels
Channel layout : L R
Sampling rate : 48.0 kHz
Frame rate : 46.875 FPS (1024 SPF)
Compression mode : Lossy
Delay relative to video : -21 ms
Stream size : 57.9 MiB (1%)
Title : Commentary by Screenwriter Jeffrey Alan Fiskin and Film Historian/Filmmaker Daniel Kremer
Language : English
Default : No
Forced : No

Text #1
ID : 4
Format : UTF-8
Codec ID : S_TEXT/UTF8
Codec ID/Info : UTF-8 Plain Text
Duration : 1 h 39 min
Bit rate : 58 b/s
Count of elements : 1639
Stream size : 42.5 KiB (0%)
Language : English
Default : Yes
Forced : No

Text #2
ID : 5
Format : PGS
Muxing mode : zlib
Codec ID : S_HDMV/PGS
Codec ID/Info : Picture based subtitle format used on BDs/HD-DVDs
Duration : 1 h 39 min
Bit rate : 36.5 kb/s
Count of elements : 2166
Stream size : 25.9 MiB (0%)
Title : Hard of Hearing
Language : English
Default : No
Forced : No

Menu
00:00:00.000 : :Chapter 1
00:09:01.833 : :Chapter 2
00:19:16.530 : :Chapter 3
00:31:28.011 : :Chapter 4
00:50:55.386 : :Chapter 5
01:06:19.225 : :Chapter 6
01:17:57.047 : :Chapter 7
01:29:54.139 : :Chapter 8





1 个附件 售价 大小 下载 时间

The.Pursuit.of.DB.Cooper.1981.1080p.BluRay.x264.AAC2.0-HANDJOB.torrent 0 金币 19.88K 686 次 14天前

#1楼
发帖时间:2022-01-15 08:59:56   |   回复数:1
gghot
小有名气
Thank you so much for sharing
14天前 #2楼
游客组