travismk
一代宗师

[更 早] [其他] [动作] [4K-原盘] 刺杀小说家 A.Writers.Odyssey.2021.CHINESE.2160p.BluRay.REMUX.HEVC.DTS-HD.MA.TrueHD.7.

-->

帖子完整标题:刺杀小说家 A.Writers.Odyssey.2021.CHINESE.2160p.BluRay.REMUX.HEVC.DTS-HD.MA.TrueHD.7.1.Atmos-FGT 79.59GB



◎译  名 A Writer's Odyssey/Assassin in Red
◎片  名 刺杀小说家
◎年  代 2021
◎产  地 中国大陆
◎类  别 动作 / 奇幻 / 冒险
◎语  言 汉语普通话
◎上映日期 2021-02-12(中国大陆)
◎豆瓣评分 6.6/10 from 577501 users
◎豆瓣链接 https://movie.douban.com/subject/26826330/
◎片  长 130分钟
◎导  演 路阳 Yang Lu
◎编  剧 陈舒 Shu Chen / 禹扬 Yang Yu / 秦海燕 Haiyan Qin / 路阳 Yang Lu / 双雪涛 Shuang XueTao
◎主  演 雷佳音 Jiayin Lei
      杨幂 Mi Yang
      董子健 Zijian Dong
      于和伟 Hewei Yu
      郭京飞 Jingfei Guo
      佟丽娅 Liya Tong
      董洁 Jie Dong
      王圣迪 Shengdi Wang
      杨轶 Yi Yang
      刘天佐 Tianzuo Liu
      李柄辉 Binghui Li
      萧子墨 Eric Hsiao
      双雪涛 Shuang XueTao
      徐建 Eric Xu
      高睿菲儿 Ruifeier Gao
      康嘉泽 Jiaze Kang
      谭天宇 Tianyu Tan
      杨婉婷 Wanting Yang
      马一萍 Yiping Ma
      黄皓达 Haoda Huang
      张戈 Ge Zhang
      任杰 Jie Ren
      陈铁军 Tiejun Chen
      李泰延 Taiyan Li
      张优 You Zhang

◎标  签 奇幻 | 平行世界 | 悬疑 | 动作 | 中国大陆 | 2021 | 剧情 | 电影

◎简  介

  异世界皇都,天神赤发鬼残暴统治,滥杀无辜。少年空文因被赤发鬼追杀,决定奋起反击。在黑甲(郭京飞 饰)的指引下,踏上了凡人弑神之路。这是小说家路空文(董子健 饰)笔下的奇幻世界。没想到小说的进程,竟然影响着现实世界。这时一名男子(雷佳音 饰)接下了刺杀他的任务……

◎获奖情况

  第15届亚洲电影大奖 ?(2021)
  最佳美术指导(提名) 李淼
  最佳视觉效果(提名) 魏明?/?徐建
  
  第7届豆瓣电影年度榜单 ?(2020)
  最值得期待的华语电影(提名)

Video
ID : 1
ID in the original source medium : 4113 (0x1011)
Format : HEVC
Format/Info : High Efficiency Video Coding
Format profile : Main [email protected]@High
HDR format : Dolby Vision, Version 1.0, dvhe.07.06, BL+EL+RPU, Blu-ray compatible / SMPTE ST 2086, HDR10 compatible
Codec ID : V_MPEGH/ISO/HEVC
Duration : 2 h 9 min
Bit rate : 76.1 Mb/s
Width : 3 840 pixels
Height : 2 160 pixels
Display aspect ratio : 16:9
Frame rate mode : Constant
Frame rate : 24.000 FPS
Color space : YUV
Chroma subsampling : 4:2:0 (Type 2)
Bit depth : 10 bits
Bits/(Pixel*Frame) : 0.382
Stream size : 69.0 GiB (87%)
Language : English
Default : No
Forced : No
Color range : Limited
Color primaries : BT.2020
Transfer characteristics : PQ
Matrix coefficients : BT.2020 non-constant
Mastering display color primaries : Display P3
Mastering display luminance : min: 0.0050 cd/m2, max: 1000 cd/m2
Original source medium : Blu-ray

Audio #1
ID : 2
ID in the original source medium : 4352 (0x1100)
Format : MLP FBA 16-ch
Format/Info : Meridian Lossless Packing FBA with 16-channel presentation
Commercial name : Dolby TrueHD with Dolby Atmos
Codec ID : A_TRUEHD
Duration : 2 h 9 min
Bit rate mode : Variable
Bit rate : 3 802 kb/s
Maximum bit rate : 5 742 kb/s
Channel(s) : 8 channels
Channel layout : L R C LFE Ls Rs Lb Rb
Sampling rate : 48.0 kHz
Frame rate : 1 200.000 FPS (40 SPF)
Bit depth : 24 bits
Compression mode : Lossless
Stream size : 3.45 GiB (4%)
Title : TrueHD 7.1 Atmos
Language : Chinese
Default : Yes
Forced : No
Original source medium : Blu-ray
Number of dynamic objects : 11
Bed channel count : 1 channel
Bed channel configuration : LFE

Audio #2
ID : 3
Format : DTS XLL
Format/Info : Digital Theater Systems
Commercial name : DTS-HD Master Audio
Codec ID : A_DTS
Duration : 2 h 9 min
Bit rate mode : Variable
Bit rate : 4 611 kb/s
Channel(s) : 8 channels
Channel layout : C L R LFE Lb Rb Lss Rss
Sampling rate : 48.0 kHz
Frame rate : 93.750 FPS (512 SPF)
Bit depth : 24 bits
Compression mode : Lossless
Stream size : 4.18 GiB (5%)
Title : DTS-HD MA 7.1
Language : Chinese
Default : No
Forced : No

Audio #3
ID : 4
ID in the original source medium : 4352 (0x1100)
Format : AC-3
Format/Info : Audio Coding 3
Commercial name : Dolby Digital
Format settings : Dolby Surround EX
Codec ID : A_AC3
Duration : 2 h 9 min
Bit rate mode : Constant
Bit rate : 640 kb/s
Channel(s) : 6 channels
Channel layout : L R C LFE Ls Rs
Sampling rate : 48.0 kHz
Frame rate : 31.250 FPS (1536 SPF)
Compression mode : Lossy
Stream size : 595 MiB (1%)
Title : DD 5.1
Language : Chinese
Service kind : Complete Main
Default : No
Forced : No
Original source medium : Blu-ray

Audio #4
ID : 5
ID in the original source medium : 4353 (0x1101)
Format : DTS XLL
Format/Info : Digital Theater Systems
Commercial name : DTS-HD Master Audio
Codec ID : A_DTS
Duration : 2 h 9 min
Bit rate mode : Variable
Bit rate : 817 kb/s
Channel(s) : 2 channels
Channel layout : L R
Sampling rate : 48.0 kHz
Frame rate : 93.750 FPS (512 SPF)
Bit depth : 16 bits
Compression mode : Lossless
Stream size : 759 MiB (1%)
Title : DTS-HD MA 2.0
Language : Chinese
Default : No
Forced : No
Original source medium : Blu-ray

Audio #5
ID : 6
ID in the original source medium : 4354 (0x1102)
Format : DTS XLL
Format/Info : Digital Theater Systems
Commercial name : DTS-HD Master Audio
Codec ID : A_DTS
Duration : 2 h 9 min
Bit rate mode : Variable
Bit rate : 842 kb/s
Channel(s) : 2 channels
Channel layout : L R
Sampling rate : 48.0 kHz
Frame rate : 93.750 FPS (512 SPF)
Bit depth : 16 bits
Compression mode : Lossless
Stream size : 782 MiB (1%)
Title : DTS-HD MA 2.0
Language : Chinese
Default : No
Forced : No
Original source medium : Blu-ray

Audio #6
ID : 7
ID in the original source medium : 4355 (0x1103)
Format : DTS XLL
Format/Info : Digital Theater Systems
Commercial name : DTS-HD Master Audio
Codec ID : A_DTS
Duration : 2 h 9 min
Bit rate mode : Variable
Bit rate : 825 kb/s
Channel(s) : 2 channels
Channel layout : L R
Sampling rate : 48.0 kHz
Frame rate : 93.750 FPS (512 SPF)
Bit depth : 16 bits
Compression mode : Lossless
Stream size : 766 MiB (1%)
Title : DTS-HD MA 2.0
Language : Chinese
Default : No
Forced : No
Original source medium : Blu-ray

Text #1
ID : 8
Format : UTF-8
Codec ID : S_TEXT/UTF8
Codec ID/Info : UTF-8 Plain Text
Duration : 2 h 4 min
Bit rate : 31 b/s
Count of elements : 1456
Stream size : 28.6 KiB (0%)
Language : English
Default : Yes
Forced : No

Text #2
ID : 9
ID in the original source medium : 4768 (0x12A0)
Format : PGS
Muxing mode : zlib
Codec ID : S_HDMV/PGS
Codec ID/Info : Picture based subtitle format used on BDs/HD-DVDs
Duration : 2 h 7 min
Bit rate : 18.8 kb/s
Count of elements : 2679
Stream size : 17.1 MiB (0%)
Language : Chinese
Default : No
Forced : No
Original source medium : Blu-ray

Text #3
ID : 10
ID in the original source medium : 4769 (0x12A1)
Format : PGS
Muxing mode : zlib
Codec ID : S_HDMV/PGS
Codec ID/Info : Picture based subtitle format used on BDs/HD-DVDs
Duration : 2 h 4 min
Bit rate : 25.2 kb/s
Count of elements : 2610
Stream size : 22.5 MiB (0%)
Language : English
Default : No
Forced : No
Original source medium : Blu-ray

Menu
00:00:00.000 : en:Chapter 01
00:10:12.000 : en:Chapter 02
00:27:33.000 : en:Chapter 03
00:36:07.000 : en:Chapter 04
00:48:44.000 : en:Chapter 05
01:00:39.000 : en:Chapter 06
01:11:36.000 : en:Chapter 07
01:21:08.000 : en:Chapter 08
01:28:45.000 : en:Chapter 09
01:41:22.000 : en:Chapter 10
01:53:25.000 : en:Chapter 11
02:03:07.000 : en:Chapter 12





1 个附件 售价 大小 下载 时间

A.Writers.Odyssey.2021.CHINESE.2160p.BluRay.REMUX.HEVC.DTS-HD.MA.TrueHD.7.1.Atmos-FGT.torrent 0 金币 100.18K 1645 次 2天前

#1楼
发帖时间:2021-11-25 22:33:11   |   回复数:2
liyouchai
隐世仙人♂
谢谢楼主分享资源
2天前 #2楼
popeye69
武林高手
感谢楼主分享。
1天前 #3楼
游客组