topgood
一派掌门

[更 早] [欧美] [喜剧] [BD-4K] 八比特圣诞 8-Bit.Christmas.2021.HDR.2160p.WEB.h265-RUMOUR 12.90GB

-->

帖子完整标题:八比特圣诞 8-Bit.Christmas.2021.HDR.2160p.WEB.h265-RUMOUR 12.90GB



◎译  名 八比特圣诞/8-Bit Christmas
◎片  名 8 Bit Christmas
◎年  代 2021
◎产  地 美国
◎类  别 喜剧 / 家庭
◎语  言 英语
◎上映日期 2021-11-24(美国网络)
◎豆瓣评分 /10 from 0 users
◎豆瓣链接 https://movie.douban.com/subject/35384188/
◎导  演 迈克尔·道斯 Michael Dowse
◎编  剧 Kevin Jakubowski Kevin Jakubowski
◎主  演 尼尔·帕特里克·哈里斯 Neil Patrick Harris
      琼·黛安·拉斐尔 June Diane Raphael
      斯蒂夫·扎恩 Steve Zahn
      赛勒斯·阿诺德 Cyrus Arnold
      温斯洛·费格雷 Winslow Fegley
      桑蒂诺·巴纳德 Santino Barnard
      雅各布·拉瓦尔 Jacob Laval
      丹妮埃拉·伯尔冈 Danielle Bourgon
      大卫·麦金尼斯 David MacInnis
      迈克尔·戴森 Michael Dyson
      Kevin Dennis Kevin Dennis
       William Poulin

◎标  签 2021 | 小霸王 | 喜剧 | WK | NewCast | M美国 | D迈克尔·道斯

◎简  介

  新线影业开发的喜剧片[八比特圣诞](8-Bit Christmas,暂译)已经开拍。影片由尼尔·帕特里克·哈里斯、温斯洛·费格雷、琼·黛安·拉斐尔、斯蒂夫·扎恩主演,迈克尔·道斯([冰球坏小子])执导,凯文·雅库波斯基操刀剧本。
  
  该片根据凯文·雅库波斯基撰写的同名小说改编,故事以20世纪80年代末的芝加哥郊区为背景,讲述了10岁的杰克·多伊尔(费格雷饰)为了得到最好、最新的圣诞电子游戏开始艰难的挑战。哈里斯扮演成年后的杰克·多伊尔,同时也担任该片旁白。拉斐尔和扎恩饰演杰克·多伊尔小时候的父母凯西和约翰

Video
ID : 1
Format : HEVC
Format/Info : High Efficiency Video Coding
Format profile : Main [email protected]@Main
HDR format : SMPTE ST 2086, HDR10 compatible
Codec ID : V_MPEGH/ISO/HEVC
Duration : 1 h 37 min
Bit rate : 17.9 Mb/s
Width : 3 840 pixels
Height : 2 160 pixels
Display aspect ratio : 16:9
Frame rate mode : Constant
Frame rate : 23.976 (24000/1001/189150) FPS
Color space : YUV
Chroma subsampling : 4:2:0
Bit depth : 10 bits
Bits/(Pixel*Frame) : 0.090
Stream size : 12.2 GiB (96%)
Writing library : x265 3.4hy:[Linux][GCC 7.5.0][64 bit] 10bit
Encoding settings : cpuid=1111039 / frame-threads=1 / wpp / no-pmode / no-pme / no-psnr / no-ssim / log-level=2 / input-csp=1 / input-res=3840x2160 / interlace=0 / total-frames=0 / level-idc=0 / high-tier=1 / uhd-bd=0 / ref=4 / no-allow-non-conformance / repeat-headers / annexb / no-aud / no-hrd / info / hash=0 / no-temporal-layers / no-open-gop / min-keyint=96 / keyint=96 / gop-lookahead=0 / bframes=3 / b-adapt=2 / b-pyramid / bframe-bias=0 / rc-lookahead=25 / lookahead-slices=4 / scenecut=40 / hist-scenecut=0 / radl=0 / no-splice / no-intra-refresh / ctu=64 / min-cu-size=8 / rect / no-amp / max-tu-size=32 / tu-inter-depth=1 / tu-intra-depth=1 / limit-tu=0 / rdoq-level=2 / dynamic-rd=0.00 / no-ssim-rd / signhide / no-tskip / nr-intra=0 / nr-inter=0 / no-constrained-intra / strong-intra-smoothing / max-merge=3 / limit-refs=3 / limit-modes / me=3 / subme=3 / merange=57 / temporal-mvp / no-frame-dup / no-hme / weightp / no-weightb / no-analyze-src-pics / deblock=0:0 / sao / no-sao-non-deblock / rd=4 / selective-sao=4 / no-early-skip / rskip / no-fast-intra / no-tskip-fast / no-cu-lossless / no-b-intra / no-splitrd-skip / rdpenalty=0 / psy-rd=2.00 / psy-rdoq=1.00 / no-rd-refine / no-lossless / cbqpoffs=0 / crqpoffs=0 / rc=abr / bitrate=18000 / qcomp=0.60 / qpstep=4 / stats-write=0 / stats-read=2 / cplxblur=20.0 / qblur=0.5 / vbv-maxrate=24500 / vbv-bufsize=24500 / vbv-init=0.6 / vbv-end=0.6 / vbv-end-fr-adj=0.0 / ipratio=1.40 / pbratio=1.30 / aq-mode=2 / aq-strength=1.00 / cutree / zone-count=0 / no-strict-cbr / qg-size=32 / no-rc-grain / qpmax=69 / qpmin=0 / no-const-vbv / sar=0 / overscan=0 / videoformat=5 / range=0 / colorprim=9 / transfer=16 / colormatrix=9 / chromaloc=0 / display-window=0 / master-display=G(13250,34500)B(7500,3000)R(34000,16000)WP(15635,16450)L(10000000,1) / cll=215,106 / min-luma=0 / max-luma=1023 / log2-max-poc-lsb=8 / vui-timing-info / vui-hrd-info / no-concatenation / slices=1 / no-opt-qp-pps / no-opt-ref-list-length-pps / no-multi-pass-opt-rps / scenecut-bias=0.05 / hist-threshold=0.01 / no-opt-cu-delta-qp / no-aq-motion / hdr10 / no-hdr10-opt / no-dhdr10-opt / no-idr-recovery-sei / analysis-reuse-level=0 / analysis-save-reuse-level=0 / analysis-load-reuse-level=0 / scale-factor=0 / refine-intra=0 / refine-inter=0 / refine-mv=1 / refine-ctu-distortion=0 / no-limit-sao / ctu-info=0 / no-lowpass-dct / refine-analysis-type=0 / copy-pic=1 / max-ausize-factor=1.0 / no-dynamic-refine / no-single-sei / no-hevc-aq / no-svt / no-field / qp-adaptation-range=1.00 / no-scenecut-aware-qpconformance-window-offsets / right=0 / bottom=0 / decoder-max-rate=0
Language : English
Default : Yes
Forced : No
Color range : Limited
Color primaries : BT.2020
Transfer characteristics : PQ
Matrix coefficients : BT.2020 non-constant
Mastering display color primaries : Display P3
Mastering display luminance : min: 0.0001 cd/m2, max: 1000 cd/m2
Maximum Content Light Level : 215 cd/m2
Maximum Frame-Average Light Level : 106 cd/m2

Audio
ID : 2
Format : E-AC-3 JOC
Format/Info : Enhanced AC-3 with Joint Object Coding
Commercial name : Dolby Digital Plus with Dolby Atmos
Codec ID : A_EAC3
Duration : 1 h 37 min
Bit rate mode : Constant
Bit rate : 768 kb/s
Channel(s) : 6 channels
Channel layout : L R C LFE Ls Rs
Sampling rate : 48.0 kHz
Frame rate : 31.250 FPS (1536 SPF)
Compression mode : Lossy
Stream size : 537 MiB (4%)
Language : English
Service kind : Complete Main
Default : Yes
Forced : No
Complexity index : 16
Number of dynamic objects : 15
Bed channel count : 1 channel
Bed channel configuration : LFE

Text #1
ID : 3
Format : UTF-8
Codec ID : S_TEXT/UTF8
Codec ID/Info : UTF-8 Plain Text
Duration : 1 h 32 min
Bit rate : 85 b/s
Count of elements : 1934
Stream size : 58.0 KiB (0%)
Title : Danish
Language : Danish
Default : No
Forced : No

Text #2
ID : 4
Format : UTF-8
Codec ID : S_TEXT/UTF8
Codec ID/Info : UTF-8 Plain Text
Duration : 1 h 31 min
Bit rate : 96 b/s
Count of elements : 2050
Stream size : 65.1 KiB (0%)
Title : English [CC]
Language : English
Default : No
Forced : No

Text #3
ID : 5
Format : UTF-8
Codec ID : S_TEXT/UTF8
Codec ID/Info : UTF-8 Plain Text
Duration : 1 h 33 min
Bit rate : 95 b/s
Count of elements : 2388
Stream size : 65.4 KiB (0%)
Title : European Spanish [CC]
Language : Spanish
Default : No
Forced : No

Text #4
ID : 6
Format : UTF-8
Codec ID : S_TEXT/UTF8
Codec ID/Info : UTF-8 Plain Text
Duration : 1 h 33 min
Bit rate : 95 b/s
Count of elements : 2388
Stream size : 65.4 KiB (0%)
Title : European Spanish
Language : Spanish
Default : No
Forced : No

Text #5
ID : 7
Format : UTF-8
Codec ID : S_TEXT/UTF8
Codec ID/Info : UTF-8 Plain Text
Duration : 1 h 33 min
Bit rate : 87 b/s
Count of elements : 1795
Stream size : 59.7 KiB (0%)
Title : European Spanish
Language : Spanish
Default : No
Forced : No

Text #6
ID : 8
Format : UTF-8
Codec ID : S_TEXT/UTF8
Codec ID/Info : UTF-8 Plain Text
Duration : 1 h 37 min
Bit rate : 67 b/s
Count of elements : 1935
Stream size : 48.4 KiB (0%)
Title : Finish
Language : Finnish
Default : No
Forced : No

Text #7
ID : 9
Format : UTF-8
Codec ID : S_TEXT/UTF8
Codec ID/Info : UTF-8 Plain Text
Duration : 1 h 32 min
Bit rate : 80 b/s
Count of elements : 1933
Stream size : 54.3 KiB (0%)
Title : Norwegian
Language : Norwegian
Default : No
Forced : No

Text #8
ID : 10
Format : UTF-8
Codec ID : S_TEXT/UTF8
Codec ID/Info : UTF-8 Plain Text
Duration : 1 h 37 min
Bit rate : 79 b/s
Count of elements : 1937
Stream size : 56.8 KiB (0%)
Title : Brazilian Portuguese
Language : Portuguese
Default : No
Forced : No

Text #9
ID : 11
Format : UTF-8
Codec ID : S_TEXT/UTF8
Codec ID/Info : UTF-8 Plain Text
Duration : 1 h 37 min
Bit rate : 80 b/s
Count of elements : 1925
Stream size : 57.7 KiB (0%)
Title : Swedish
Language : Swedish
Default : No
Forced : No





1 个附件 售价 大小 下载 时间

8-Bit.Christmas.2021.HDR.2160p.WEB.h265-RUMOUR.torrent 0 金币 16.91K 441 次 2天前

#1楼
发帖时间:2021-11-25 20:28:33   |   回复数:2
liyouchai
隐世仙人♂
谢谢楼主分享资源
2天前 #2楼
popeye69
武林高手
感谢楼主分享。
1天前 #3楼
游客组