travismk
一代宗师

[更 早] [欧美] [惊悚] [4K-原盘] 月光光心慌慌5 Halloween.5.The.Revenge.of.Michael.Myers.1989.2160p.BluRay.REMUX.HEVC.DT

-->

帖子完整标题:月光光心慌慌5 Halloween.5.The.Revenge.of.Michael.Myers.1989.2160p.BluRay.REMUX.HEVC.DTS-HD.MA.TrueHD.7.1.Atmos-FGT 59.67GB



◎译  名 月光光心慌慌5/Halloween 5: The Revenge of Michael Myers/万圣节5/捉鬼节4
◎片  名 Halloween 5
◎年  代 1989
◎产  地 美国
◎类  别 惊悚 / 恐怖
◎语  言 英语
◎上映日期 1989-10-13
◎豆瓣评分 6.1/10 from 1110 users
◎豆瓣链接 https://movie.douban.com/subject/1295166/
◎片  长 96 分钟
◎导  演 多米尼克·阿森尼-吉拉德 Dominique Othenin-Girard
◎编  剧 多米尼克·阿森尼-吉拉德 Dominique Othenin-Girard / Shem Bitterman Shem Bitterman / 迈克尔·雅各布斯 Michael Jacobs
◎主  演 唐纳德·普利森斯 Donald Pleasence
      丹妮尔·哈丽丝 Danielle Harris
      艾莉·康纳尔 Ellie Cornell
      杰弗里·兰德曼 Jeffrey Landman
      博斯塔尔 Beau Starr
      史蒂文·安德森 Steven Anderson

◎标  签 恐怖 | 美国 | 惊悚 | 血腥 | 1989 | 美国电影 | 《月光光心慌慌》 | 恐怖电影

◎简  介

  1988年的万圣节,杀人魔王迈克尔?梅尔被警察射伤,几经周折,他逃到一条河边,并得到一位好心人的救治。一年时光转瞬即逝,伤愈的迈克尔如同僵死复苏的毒蛇一般杀掉救命恩人,并决定再次前往哈登菲尔德,向甥女杰米(Danielle Harris 饰)复仇。
  
  一年前,杰米因攻击养母及经历了舅舅迈克尔的追杀噩梦而患上失语症,如今正在当地的儿童医院接受康复治疗。虽然失去说话能力,杰米却神奇地拥有了与迈克尔心灵相通的能力。主治医生卢米斯(Donald Pleasence 饰)意识到了这点,他决定利用这个能力和迈克尔做个了断……

Video
ID : 1
ID in the original source medium : 4113 (0x1011)
Format : HEVC
Format/Info : High Efficiency Video Coding
Format profile : Main [email protected]@High
HDR format : Dolby Vision, Version 1.0, dvhe.07.06, BL+EL+RPU, Blu-ray compatible / SMPTE ST 2086, HDR10 compatible
Codec ID : V_MPEGH/ISO/HEVC
Duration : 1 h 36 min
Bit rate : 76.5 Mb/s
Width : 3 840 pixels
Height : 2 160 pixels
Display aspect ratio : 16:9
Frame rate mode : Constant
Frame rate : 24.000 FPS
Color space : YUV
Chroma subsampling : 4:2:0 (Type 2)
Bit depth : 10 bits
Bits/(Pixel*Frame) : 0.384
Stream size : 51.8 GiB (87%)
Language : English
Default : No
Forced : No
Color range : Limited
Color primaries : BT.2020
Transfer characteristics : PQ
Matrix coefficients : BT.2020 non-constant
Mastering display color primaries : Display P3
Mastering display luminance : min: 0.0001 cd/m2, max: 1000 cd/m2
Maximum Content Light Level : 10000 cd/m2
Maximum Frame-Average Light Level : 451 cd/m2
Original source medium : Blu-ray

Audio #1
ID : 2
ID in the original source medium : 4354 (0x1102)
Format : MLP FBA 16-ch
Format/Info : Meridian Lossless Packing FBA with 16-channel presentation
Commercial name : Dolby TrueHD with Dolby Atmos
Codec ID : A_TRUEHD
Duration : 1 h 36 min
Bit rate mode : Variable
Bit rate : 4 454 kb/s
Maximum bit rate : 6 912 kb/s
Channel(s) : 8 channels
Channel layout : L R C LFE Ls Rs Lb Rb
Sampling rate : 48.0 kHz
Frame rate : 1 200.000 FPS (40 SPF)
Bit depth : 24 bits
Compression mode : Lossless
Stream size : 3.02 GiB (5%)
Title : TrueHD 7.1 Atmos
Language : English
Default : Yes
Forced : No
Original source medium : Blu-ray
Number of dynamic objects : 11
Bed channel count : 1 channel
Bed channel configuration : LFE

Audio #2
ID : 3
Format : DTS XLL
Format/Info : Digital Theater Systems
Commercial name : DTS-HD Master Audio
Codec ID : A_DTS
Duration : 1 h 36 min
Bit rate mode : Variable
Bit rate : 4 212 kb/s
Channel(s) : 8 channels
Channel layout : C L R LFE Lb Rb Lss Rss
Sampling rate : 48.0 kHz
Frame rate : 93.750 FPS (512 SPF)
Bit depth : 24 bits
Compression mode : Lossless
Stream size : 2.85 GiB (5%)
Title : DTS-HD MA 7.1
Language : English
Default : No
Forced : No

Audio #3
ID : 4
ID in the original source medium : 4354 (0x1102)
Format : AC-3
Format/Info : Audio Coding 3
Commercial name : Dolby Digital
Codec ID : A_AC3
Duration : 1 h 36 min
Bit rate mode : Constant
Bit rate : 384 kb/s
Channel(s) : 6 channels
Channel layout : L R C LFE Ls Rs
Sampling rate : 48.0 kHz
Frame rate : 31.250 FPS (1536 SPF)
Compression mode : Lossy
Stream size : 266 MiB (0%)
Title : DD 5.1
Language : English
Service kind : Complete Main
Default : No
Forced : No
Original source medium : Blu-ray

Audio #4
ID : 5
ID in the original source medium : 4352 (0x1100)
Format : DTS XLL
Format/Info : Digital Theater Systems
Commercial name : DTS-HD Master Audio
Codec ID : A_DTS
Duration : 1 h 36 min
Bit rate mode : Variable
Bit rate : 2 035 kb/s
Channel(s) : 2 channels
Channel layout : L R
Sampling rate : 48.0 kHz
Frame rate : 93.750 FPS (512 SPF)
Bit depth : 24 bits
Compression mode : Lossless
Stream size : 1.38 GiB (2%)
Title : DTS-HD MA 2.0
Language : English
Default : No
Forced : No
Original source medium : Blu-ray

Audio #5
ID : 6
ID in the original source medium : 4355 (0x1103)
Format : AC-3
Format/Info : Audio Coding 3
Commercial name : Dolby Digital
Codec ID : A_AC3
Duration : 1 h 36 min
Bit rate mode : Constant
Bit rate : 192 kb/s
Channel(s) : 2 channels
Channel layout : L R
Sampling rate : 48.0 kHz
Frame rate : 31.250 FPS (1536 SPF)
Compression mode : Lossy
Stream size : 133 MiB (0%)
Title : DD 2.0
Language : English
Service kind : Complete Main
Default : No
Forced : No
Original source medium : Blu-ray

Audio #6
ID : 7
ID in the original source medium : 4356 (0x1104)
Format : AC-3
Format/Info : Audio Coding 3
Commercial name : Dolby Digital
Codec ID : A_AC3
Duration : 1 h 36 min
Bit rate mode : Constant
Bit rate : 192 kb/s
Channel(s) : 2 channels
Channel layout : L R
Sampling rate : 48.0 kHz
Frame rate : 31.250 FPS (1536 SPF)
Compression mode : Lossy
Stream size : 133 MiB (0%)
Title : DD 2.0
Language : English
Service kind : Complete Main
Default : No
Forced : No
Original source medium : Blu-ray

Text #1
ID : 8
Format : UTF-8
Codec ID : S_TEXT/UTF8
Codec ID/Info : UTF-8 Plain Text
Duration : 1 h 31 min
Bit rate : 30 b/s
Count of elements : 913
Stream size : 20.5 KiB (0%)
Title : SRT
Language : English
Default : Yes
Forced : No

Text #2
ID : 9
ID in the original source medium : 4768 (0x12A0)
Format : PGS
Muxing mode : zlib
Codec ID : S_HDMV/PGS
Codec ID/Info : Picture based subtitle format used on BDs/HD-DVDs
Duration : 1 h 36 min
Bit rate : 28.9 kb/s
Count of elements : 3012
Stream size : 19.8 MiB (0%)
Language : English
Default : No
Forced : No
Original source medium : Blu-ray

Menu
00:00:00.000 : Chapter 00
00:10:02.625 : Chapter 01
00:19:02.166 : Chapter 02
00:25:50.833 : Chapter 03
00:32:21.833 : Chapter 04
00:39:57.958 : Chapter 05
00:48:17.083 : Chapter 06
00:56:52.333 : Chapter 07
01:07:08.208 : Chapter 08
01:13:54.458 : Chapter 09
01:20:18.666 : Chapter 10
01:31:01.375 : Chapter 11





1 个附件 售价 大小 下载 时间

Halloween.5.The.Revenge.of.Michael.Myers.1989.2160p.BluRay.REMUX.HEVC.DTS-HD.MA.TrueHD.7.1.Atmos-FGT.torrent 0 金币 75.31K 203 次 11天前

#1楼
发帖时间:2021-10-15 00:56:42   |   回复数:1
liyouchai
隐世仙人♂
谢谢楼主分享资源
11天前 #2楼
游客组