travismk
一代宗师

[更 早] [其他] [剧情] [BD-1080P] 朱丽叶与魔鬼 Juliet.of.the.Spirits.1965.UNCUT.1080p.BluRay.x264-USURY 17.13GB

-->

帖子完整标题:朱丽叶与魔鬼 Juliet.of.the.Spirits.1965.UNCUT.1080p.BluRay.x264-USURY 17.13GB



◎译  名 朱丽叶与魔鬼/Juliet of the Spirits/死亡精灵/神游朱丽叶/神游茱丽叶(港)/茱丽叶的梦/鬼迷朱丽叶/鬼迷茱丽叶(台)
◎片  名 Giulietta degli spiriti
◎年  代 1965
◎产  地 意大利,法国
◎类  别 剧情 / 喜剧 / 奇幻
◎语  言 意大利语,法语,西班牙语,英语
◎上映日期 1965-10-28(意大利)
◎豆瓣评分 7.7/10 from 4941 users
◎豆瓣链接 https://movie.douban.com/subject/1299485/
◎片  长 137分钟
◎导  演 费德里科·费里尼 Federico Fellini
◎编  剧 费德里科·费里尼 Federico Fellini / 图里奥·皮内利 Tullio Pinelli / 恩尼奥·弗拉亚诺 Ennio Flaiano / 布鲁内洛·龙迪 Brunello Rondi
◎主  演 朱丽叶塔·马西纳 Giulietta Masina
      桑德拉·米洛 Sandra Milo
      马里奥·皮苏 Mario Pisu
      瓦伦蒂娜·格特斯 Valentina Cortese
      瓦勒斯卡·格特 Valeska Gert
      约瑟·路易斯·德·维拉龙卡 José Luis de Villalonga
      Friedrich von Ledebur Friedrich von Ledebur
      卡特丽娜·波拿托 Caterina Boratto
      娄·吉尔伯特 Lou Gilbert
      路易莎·黛拉·诺斯 Luisa Della Noce
      Silvana Jachino Silvana Jachino
      米莱娜·伍柯迪克 Milena Vukotic
      弗莱德.威廉姆斯 Fred Williams
      Anne Francine Anne Francine
      西娃·科丝西娜 Sylva Koscina
      乔治·阿尔迪松 George Ardisson
      Alberto Plebani Alberto Plebani
      圭多·阿尔贝蒂 Guido Alberti
      Mary Arden Mary Arden
      Rika Dialina Rika Dialina
      米诺·多罗 Mino Doro
      雅克·赫林 Jacques Herlin
      莱娅·兰德尔 Lea Lander
      克劳迪·兰格 Claudie Lange
      阿妮塔·桑德斯 Anita Sanders
      马西莫·萨尔基耶利 Massimo Sarchielli
      玛利亚·特德斯奇 Maria Tedeschi
      玛丽卢·托洛 Marilù Tolo
      西格丽德·冯·里希特霍芬 Sigrid von Richthofen
      Eugene Walter Eugene Walter
      罗伯特·沃德斯 Robert Wolders
      Maria Cumani Quasimodo Maria Cumani Quasimodo

◎标  签 意大利 | 费里尼 | 费德里科·费里尼 | 1965 | 意大利电影 | 奇幻 | FedericoFellini | 1960s

◎简  介

  费里尼拍摄了另一部自传性很强的电影《朱丽叶与魔鬼》,在这部电影里,费里尼过分追求求神秘主义的梦境空间,在影片里极尽详能的描述描写一个资产阶级的女人遭到丈夫的欺骗,精神迷惘,陷于离奇古怪的幻觉,最后终于清醒的故事。虽然费里尼和茱莉埃妲两人携手共度一生,而且费里尼也从来没有传出与其他女人的诽闻,但是我想所有对费里尼非常熟悉的影迷都不相信费里尼从没有出轨的行为。尤其在看了这部电影之后,因为在费里尼的电影中充分的表现出费里尼是一个性欲旺盛且对女人充满遐想的导演,他甚至在他的男人外遇只是把自己的性器官借给别人用一下罢了,并没有出卖自己的灵魂。或者这正是费里尼的迷人之处吧,他永远是神秘的,让人无法捉摸的。

◎获奖情况

  第39届奥斯卡金像奖 ?(1967)
  彩色片最佳艺术指导和布景(提名) 皮耶罗·格拉尔迪
  彩色片最佳服装设计(提名) 皮耶罗·格拉尔迪

Video
ID : 1
Format : AVC
Format/Info : Advanced Video Codec
Format profile : [email protected]
Format settings : CABAC / 4 Ref Frames
Format settings, CABAC : Yes
Format settings, Reference frames : 4 frames
Codec ID : V_MPEG4/ISO/AVC
Duration : 2 h 25 min
Bit rate : 16.3 Mb/s
Width : 1 920 pixels
Height : 1 040 pixels
Display aspect ratio : 1.85:1
Frame rate mode : Constant
Frame rate : 23.976 (24000/1001/189150) FPS
Color space : YUV
Chroma subsampling : 4:2:0
Bit depth : 8 bits
Scan type : Progressive
Bits/(Pixel*Frame) : 0.340
Stream size : 16.5 GiB (96%)
Writing library : x264 core 164 r3075 66a5bc1
Encoding settings : cabac=1 / ref=4 / deblock=1:-3:-3 / analyse=0x3:0x133 / me=umh / subme=10 / psy=1 / psy_rd=1.00:0.15 / mixed_ref=1 / me_range=24 / chroma_me=1 / trellis=2 / 8x8dct=1 / cqm=0 / deadzone=21,11 / fast_pskip=1 / chroma_qp_offset=-3 / threads=18 / lookahead_threads=3 / sliced_threads=0 / nr=0 / decimate=1 / interlaced=0 / bluray_compat=0 / constrained_intra=0 / bframes=8 / b_pyramid=2 / b_adapt=2 / b_bias=0 / direct=3 / weightb=1 / open_gop=0 / weightp=2 / keyint=250 / keyint_min=23 / scenecut=40 / intra_refresh=0 / rc_lookahead=60 / rc=crf / mbtree=1 / crf=17.0 / qcomp=0.60 / qpmin=0 / qpmax=69 / qpstep=4 / ip_ratio=1.40 / aq=3:0.50
Language : English
Default : Yes
Forced : No

Audio
ID : 2
Format : FLAC
Format/Info : Free Lossless Audio Codec
Codec ID : A_FLAC
Duration : 2 h 25 min
Bit rate mode : Variable
Bit rate : 597 kb/s
Channel(s) : 1 channel
Channel layout : C
Sampling rate : 48.0 kHz
Frame rate : 11.719 FPS (4096 SPF)
Bit depth : 24 bits
Compression mode : Lossless
Stream size : 621 MiB (4%)
Writing library : libFLAC 1.2.1 (UTC 2007-09-17)
Language : Italian
Default : Yes
Forced : No

Text #1
ID : 3
Format : UTF-8
Codec ID : S_TEXT/UTF8
Codec ID/Info : UTF-8 Plain Text
Duration : 2 h 22 min
Bit rate : 57 b/s
Count of elements : 1684
Stream size : 60.0 KiB (0%)
Title : English
Language : English
Default : Yes
Forced : Yes

Text #2
ID : 4
Format : PGS
Muxing mode : zlib
Codec ID : S_HDMV/PGS
Codec ID/Info : Picture based subtitle format used on BDs/HD-DVDs
Duration : 2 h 22 min
Bit rate : 8 231 b/s
Count of elements : 3368
Stream size : 8.37 MiB (0%)
Title : English
Language : English
Default : No
Forced : No

Menu
00:00:00.000 : en:00:00:00.000
00:02:28.523 : en:00:02:28.523
00:09:10.300 : en:00:09:10.300
00:14:16.773 : en:00:14:16.773
00:17:14.659 : en:00:17:14.659
00:23:34.204 : en:00:23:34.204
00:27:21.265 : en:00:27:21.265
00:30:07.514 : en:00:30:07.514
00:34:14.844 : en:00:34:14.844
00:37:12.939 : en:00:37:12.939
00:41:58.808 : en:00:41:58.808
00:50:02.499 : en:00:50:02.499
00:54:31.518 : en:00:54:31.518
01:04:35.288 : en:01:04:35.288
01:11:15.062 : en:01:11:15.062
01:13:24.650 : en:01:13:24.650
01:17:51.041 : en:01:17:51.041
01:22:36.577 : en:01:22:36.577
01:29:26.152 : en:01:29:26.152
01:36:05.718 : en:01:36:05.718
01:42:52.083 : en:01:42:52.083
01:50:09.770 : en:01:50:09.770
01:54:13.055 : en:01:54:13.055
02:03:50.590 : en:02:03:50.590
02:07:24.262 : en:02:07:24.262
02:12:47.459 : en:02:12:47.459
02:23:51.581 : en:02:23:51.581





1 个附件 售价 大小 下载 时间

Juliet.of.the.Spirits.1965.UNCUT.1080p.BluRay.x264-USURY.torrent 0 金币 22.27K 574 次 11天前

#1楼
发帖时间:2021-10-15 00:17:39   |   回复数:0
游客组