travismk
一代宗师

[更 早] [其他] [剧情] [BD-720P] 卖艺春秋 Variety.Lights.1950.720p.BluRay.x264-USURY 5.01GB

-->

帖子完整标题:卖艺春秋 Variety.Lights.1950.720p.BluRay.x264-USURY 5.01GB



◎译  名 卖艺春秋/Lights of Variety/Variety Lights/五光十色(港)/卖艺春秋(台)/杂技之光
◎片  名 Luci del varietà
◎年  代 1950
◎产  地 意大利
◎类  别 剧情 / 爱情 / 音乐
◎语  言 意大利语,英语,俄语
◎上映日期 1950-12-06(意大利)
◎豆瓣评分 7.4/10 from 3263 users
◎豆瓣链接 https://movie.douban.com/subject/1294343/
◎片  长 97分钟
◎导  演 费德里科·费里尼 Federico Fellini / 阿尔贝托·拉图瓦达 Alberto Lattuada
◎编  剧 费德里科·费里尼 Federico Fellini / 恩尼奥·弗拉亚诺 Ennio Flaiano / 阿尔贝托·拉图瓦达 Alberto Lattuada / 图里奥·皮内利 Tullio Pinelli
◎主  演 佩皮诺·德·菲利波 Peppino De Filippo
      卡拉 · 德尔波娇 Carla Del Poggio
      朱丽叶塔·马西纳 Giulietta Masina
      约翰·奇兹米勒 John Kitzmiller
      Dante Maggio Dante Maggio
      Checco Durante Checco Durante
      Gina Mascetti Gina Mascetti
      朱利奥·卡利 Giulio Calì
      Silvio Bagolini Silvio Bagolini
      贾科莫·富里亚 Giacomo Furia
      Vanja Orico Vanja Orico
      雷纳托·马拉瓦热 Renato Malavasi
      福尔科·卢利 Folco Lulli
      Carlo Romano Carlo Romano
      Fanny Marchiò Fanny Marchiò
      弗兰卡·瓦莱里 Franca Valeri
      阿尔贝托·博努奇 Alberto Bonucci
      维托里奥·卡布里奥利 Vittorio Caprioli
      阿尔贝托·拉图瓦达 Alberto Lattuada
      Michele Malaspina Michele Malaspina
      乔瓦娜·拉利 Giovanna Ralli
      Marco Tulli Marco Tulli

◎标  签 意大利 | 费里尼 | 费德里科·费里尼 | 1950 | 意大利电影 | 1950s | FedericoFellini | 黑白

◎简  介

  这部电影带有浓厚的新现实主义风格,基本上与费里尼中后期的神采飞扬不一样,采用了纪实手法来讲述一个爱情故事,结构简单,多用长镜头。片中的内容与战后意大利贫瘠的社会现实相吻合。本片也是费里尼首次与自己的妻子玛西娜合作。乡下姑娘莉莉加入一家剧团,她的表演相当成功,不但在观众中大受欢迎,剧团团长契克也暗中爱上了她。由于契克常常醋意大发,剧团惹上了许多麻烦,最终不得不解散收场……

Video
ID : 1
Format : AVC
Format/Info : Advanced Video Codec
Format profile : [email protected]
Format settings : CABAC / 11 Ref Frames
Format settings, CABAC : Yes
Format settings, Reference frames : 11 frames
Codec ID : V_MPEG4/ISO/AVC
Duration : 1 h 38 min
Bit rate : 6 737 kb/s
Width : 986 pixels
Height : 720 pixels
Display aspect ratio : 4:3
Frame rate mode : Constant
Frame rate : 23.976 (24000/1001/189150) FPS
Color space : YUV
Chroma subsampling : 4:2:0
Bit depth : 8 bits
Scan type : Progressive
Bits/(Pixel*Frame) : 0.396
Stream size : 4.62 GiB (92%)
Writing library : x264 core 164 r3075 66a5bc1
Encoding settings : cabac=1 / ref=11 / deblock=1:-3:-3 / analyse=0x3:0x133 / me=umh / subme=10 / psy=1 / psy_rd=1.00:0.15 / mixed_ref=1 / me_range=24 / chroma_me=1 / trellis=2 / 8x8dct=1 / cqm=0 / deadzone=21,11 / fast_pskip=1 / chroma_qp_offset=-3 / threads=18 / lookahead_threads=3 / sliced_threads=0 / nr=0 / decimate=1 / interlaced=0 / bluray_compat=0 / constrained_intra=0 / bframes=8 / b_pyramid=2 / b_adapt=2 / b_bias=0 / direct=3 / weightb=1 / open_gop=0 / weightp=2 / keyint=250 / keyint_min=23 / scenecut=40 / intra_refresh=0 / rc_lookahead=60 / rc=crf / mbtree=1 / crf=17.0 / qcomp=0.60 / qpmin=0 / qpmax=69 / qpstep=4 / ip_ratio=1.40 / aq=3:0.50
Language : English
Default : Yes
Forced : No

Audio
ID : 2
Format : FLAC
Format/Info : Free Lossless Audio Codec
Codec ID : A_FLAC
Duration : 1 h 38 min
Bit rate mode : Variable
Bit rate : 558 kb/s
Channel(s) : 1 channel
Channel layout : C
Sampling rate : 48.0 kHz
Frame rate : 11.719 FPS (4096 SPF)
Bit depth : 24 bits
Compression mode : Lossless
Stream size : 392 MiB (8%)
Writing library : libFLAC 1.2.1 (UTC 2007-09-17)
Language : Italian
Default : Yes
Forced : No

Text #1
ID : 3
Format : UTF-8
Codec ID : S_TEXT/UTF8
Codec ID/Info : UTF-8 Plain Text
Duration : 1 h 36 min
Bit rate : 52 b/s
Count of elements : 1063
Stream size : 36.8 KiB (0%)
Title : English
Language : English
Default : Yes
Forced : Yes

Text #2
ID : 4
Format : PGS
Muxing mode : zlib
Codec ID : S_HDMV/PGS
Codec ID/Info : Picture based subtitle format used on BDs/HD-DVDs
Duration : 1 h 36 min
Bit rate : 7 494 b/s
Count of elements : 2126
Stream size : 5.15 MiB (0%)
Title : English
Language : English
Default : No
Forced : No

Menu
00:00:00.000 : en:00:00:00.000
00:02:39.242 : en:00:02:39.242
00:08:37.517 : en:00:08:37.517
00:14:54.769 : en:00:14:54.769
00:19:10.524 : en:00:19:10.524
00:23:05.634 : en:00:23:05.634
00:32:29.948 : en:00:32:29.948
00:41:54.929 : en:00:41:54.929
00:47:19.962 : en:00:47:19.962
00:50:02.625 : en:00:50:02.625
00:59:17.179 : en:00:59:17.179
01:08:58.843 : en:01:08:58.843
01:14:23.959 : en:01:14:23.959
01:23:17.659 : en:01:23:17.659
01:31:53.299 : en:01:31:53.299





1 个附件 售价 大小 下载 时间

Variety.Lights.1950.720p.BluRay.x264-USURY.torrent 0 金币 13.25K 273 次 11天前

#1楼
发帖时间:2021-10-15 00:17:18   |   回复数:0
游客组