travismk
一代宗师

[更 早] [欧美] [剧情] [WEB-1080P] 致埃文·汉森/亲爱的埃文·汉森 Dear.Evan.Hansen.2021.1080p.WEBRip.x264-RARBG 2.62GB

-->

帖子完整标题:致埃文·汉森/亲爱的埃文·汉森 Dear.Evan.Hansen.2021.1080p.WEBRip.x264-RARBG 2.62GB



◎译  名 致埃文·汉森/亲爱的埃文·汉森
◎片  名 Dear Evan Hansen
◎年  代 2021
◎产  地 美国
◎类  别 剧情 / 歌舞
◎语  言 英语
◎上映日期 2021-09-09(多伦多电影节) / 2021-09-24(美国)
◎豆瓣评分 6.8/10 from 1224 users
◎豆瓣链接 https://movie.douban.com/subject/30391140/
◎片  长 137分钟
◎导  演 斯蒂芬·卓博斯基 Stephen Chbosky
◎编  剧 史蒂文·莱文森 Steven Levenson / 本吉·帕塞克 Benj Pasek / 贾斯廷·保罗 Justin Paul
◎主  演 本·普拉特 Ben Platt
      朱丽安·摩尔 Julianne Moore
      凯特琳·德弗 Kaitlyn Dever
      艾米·亚当斯 Amy Adams
      丹尼·皮诺 Danny Pino
      科尔顿·瑞安 Colton Ryan
      阿曼德拉·斯坦伯格 Amandla Stenberg
      尼克·多达尼 Nik Dodani
      艾萨克·鲍威尔 Isaac Powell
      金·罗森 Kim Rosen

◎标  签 音乐剧 | 百老汇 | 青春 | 美国 | BenPlatt | 托尼奖 | 电影 | DEH

◎简  介

  聚焦青少年自杀、心理疾病等问题,讲述一个深受社交恐惧折磨的高中生编造故事,试图接近一个已自杀的同学的家庭。对“局外人”、心理创伤和人性的探讨细腻、私人,触动心灵。

Video
ID : 1
Format : AVC
Format/Info : Advanced Video Codec
Format profile : [email protected]
Format settings : CABAC / 4 Ref Frames
Format settings, CABAC : Yes
Format settings, Reference frames : 4 frames
Codec ID : avc1
Codec ID/Info : Advanced Video Coding
Duration : 2 h 17 min
Bit rate : 2 500 kb/s
Width : 1 920 pixels
Height : 802 pixels
Display aspect ratio : 2.40:1
Frame rate mode : Constant
Frame rate : 23.976 (23976/1000/189150) FPS
Color space : YUV
Chroma subsampling : 4:2:0
Bit depth : 8 bits
Scan type : Progressive
Bits/(Pixel*Frame) : 0.068
Stream size : 2.40 GiB (92%)
Writing library : x264 core 152 r2851M ba24899
Encoding settings : cabac=1 / ref=4 / deblock=1:-1:-1 / analyse=0x3:0x113 / me=umh / subme=9 / psy=1 / psy_rd=1.00:0.15 / mixed_ref=1 / me_range=24 / chroma_me=1 / trellis=2 / 8x8dct=1 / cqm=0 / deadzone=21,11 / fast_pskip=1 / chroma_qp_offset=-3 / threads=16 / lookahead_threads=4 / sliced_threads=0 / nr=0 / decimate=1 / interlaced=0 / bluray_compat=0 / constrained_intra=0 / bframes=3 / b_pyramid=2 / b_adapt=2 / b_bias=0 / direct=3 / weightb=1 / open_gop=0 / weightp=2 / keyint=250 / keyint_min=25 / scenecut=40 / intra_refresh=0 / rc_lookahead=50 / rc=2pass / mbtree=1 / bitrate=2500 / ratetol=1.0 / qcomp=0.60 / qpmin=0 / qpmax=69 / qpstep=4 / cplxblur=20.0 / qblur=0.5 / vbv_maxrate=31250 / vbv_bufsize=31250 / nal_hrd=none / filler=0 / ip_ratio=1.40 / aq=3:1.00
Encoded date : UTC 2021-10-14 09:02:16
Tagged date : UTC 2021-10-14 09:02:16
Codec configuration box : avcC

Audio
ID : 2
Format : AAC LC
Format/Info : Advanced Audio Codec Low Complexity
Codec ID : mp4a-40-2
Duration : 2 h 17 min
Duration_LastFrame : -11 ms
Bit rate mode : Constant
Bit rate : 224 kb/s
Channel(s) : 6 channels
Channel layout : C L R Ls Rs LFE
Sampling rate : 48.0 kHz
Frame rate : 46.875 FPS (1024 SPF)
Compression mode : Lossy
Stream size : 220 MiB (8%)
Language : English
Default : Yes
Alternate group : 1
Encoded date : UTC 2021-10-14 09:02:16
Tagged date : UTC 2021-10-14 09:02:16





1 个附件 售价 大小 下载 时间

Dear.Evan.Hansen.2021.1080p.WEBRip.x264-RARBG.torrent 0 金币 26.86K 294 次 11天前

#1楼
发帖时间:2021-10-14 23:38:27   |   回复数:0
游客组