travismk
一代宗师

[2020] [日本] [剧情] [WEB-1080P] 紫罗兰永恒花园 剧场版 Violet.Evergarden.The.Movie.2020.JAPANESE.1080p.WEBRip.x264-VXT 2.68

-->

帖子完整标题:紫罗兰永恒花园 剧场版 Violet.Evergarden.The.Movie.2020.JAPANESE.1080p.WEBRip.x264-VXT 2.68GB



◎译  名 紫罗兰永恒花园 剧场版/Violet Evergarden: the Movie/紫罗兰永恒花园 电影版
◎片  名 劇場版 ヴァイオレット?エヴァーガーデン
◎年  代 2020
◎产  地 日本
◎类  别 剧情 / 爱情 / 动画 / 奇幻
◎语  言 日语
◎上映日期 2020-09-18(日本) / 2021(中国大陆) / 2021-10-13(美国网络)
◎豆瓣评分 8.1/10 from 5049 users
◎豆瓣链接 https://movie.douban.com/subject/30179560/
◎片  长 140分钟
◎导  演 石立太一 Ishidate Taichi
◎编  剧 晓佳奈 Kana Akatsuki / 吉田玲子 Reiko Yoshida
◎主  演 石川由依 Yui Ishikawa
      浪川大辅 Daisuke Namikawa
      子安武人 Takehito Koyasu
      木内秀信 Hidenobu Kiuchi
      户松遥 Haruka Tomatsu
      内山昂辉 Koki Uchiyama
      远藤绫 Aya End?
      茅原实里 Minori Chihara
      水桥香织 Kaori Mizuhashi
      佐藤利奈 Rina Satou
      松元惠 Megumi Matsumoto
      诸星堇 Sumire Morohoshi
      中田让治 J?ji Nakata
      间宫康弘 Yasuhiro Mamiya
      宫本充 Mitsuru Miyamoto
      筱原惠美 Emi Shinohara
      京田尚子 Hisako Ky?da
      引坂理绘 Rie Hikisaka
      川澄绫子 Ayako Kawasumi

◎标  签 京阿尼 | 剧场版 | 动漫 | 二次元 | 日本动画 | 日本 | 温情 | 动画电影

◎简  介

  延续TV版的主线剧情,继续讲述从战场回来的少女薇尔莉特·伊芙加登为了理解“爱”的含义而从事为有需要的人们写信传情的工作。薇妹一直挂念的少佐的下落大概率会在这部剧场版中讲述。

◎获奖情况

  第44届日本电影学院奖 ?(2021)
  最佳动画片(提名)

Video
ID : 1
Format : AVC
Format/Info : Advanced Video Codec
Format profile : [email protected]
Format settings : CABAC / 4 Ref Frames
Format settings, CABAC : Yes
Format settings, Reference frames : 4 frames
Codec ID : avc1
Codec ID/Info : Advanced Video Coding
Duration : 2 h 20 min
Bit rate : 2 500 kb/s
Width : 1 920 pixels
Height : 856 pixels
Display aspect ratio : 2.25:1
Frame rate mode : Constant
Frame rate : 24.000 FPS
Color space : YUV
Chroma subsampling : 4:2:0
Bit depth : 8 bits
Scan type : Progressive
Bits/(Pixel*Frame) : 0.063
Stream size : 2.45 GiB (92%)
Writing library : x264 core 152 r2851M ba24899
Encoding settings : cabac=1 / ref=4 / deblock=1:-1:-1 / analyse=0x3:0x113 / me=umh / subme=9 / psy=1 / psy_rd=1.00:0.15 / mixed_ref=1 / me_range=24 / chroma_me=1 / trellis=2 / 8x8dct=1 / cqm=0 / deadzone=21,11 / fast_pskip=1 / chroma_qp_offset=-3 / threads=16 / lookahead_threads=4 / sliced_threads=0 / nr=0 / decimate=1 / interlaced=0 / bluray_compat=0 / constrained_intra=0 / bframes=3 / b_pyramid=2 / b_adapt=2 / b_bias=0 / direct=3 / weightb=1 / open_gop=0 / weightp=2 / keyint=250 / keyint_min=25 / scenecut=40 / intra_refresh=0 / rc_lookahead=50 / rc=2pass / mbtree=1 / bitrate=2500 / ratetol=1.0 / qcomp=0.60 / qpmin=0 / qpmax=69 / qpstep=4 / cplxblur=20.0 / qblur=0.5 / vbv_maxrate=31250 / vbv_bufsize=31250 / nal_hrd=none / filler=0 / ip_ratio=1.40 / aq=3:1.00
Encoded date : UTC 2021-10-14 08:04:21
Tagged date : UTC 2021-10-14 08:04:21
Codec configuration box : avcC

Audio
ID : 2
Format : AAC LC
Format/Info : Advanced Audio Codec Low Complexity
Codec ID : mp4a-40-2
Duration : 2 h 20 min
Duration_LastFrame : -11 ms
Bit rate mode : Constant
Bit rate : 224 kb/s
Channel(s) : 6 channels
Channel layout : C L R Ls Rs LFE
Sampling rate : 48.0 kHz
Frame rate : 46.875 FPS (1024 SPF)
Compression mode : Lossy
Stream size : 225 MiB (8%)
Language : Japanese
Default : Yes
Alternate group : 1
Encoded date : UTC 2021-10-14 08:04:21
Tagged date : UTC 2021-10-14 08:04:21





1 个附件 售价 大小 下载 时间

Violet.Evergarden.The.Movie.2020.JAPANESE.1080p.WEBRip.x264-VXT.torrent 0 金币 28.94K 1015 次 11天前

#1楼
发帖时间:2021-10-14 18:46:27   |   回复数:0
游客组