travismk
一代宗师

[更 早] [其他] [其他] [4K-原盘] 夜深血红 Deep.Red.1975.ITALIAN.2160p.BluRay.REMUX.HEVC.DTS-HD.MA.5.1-FGT 75.74GB

-->

帖子完整标题:夜深血红 Deep.Red.1975.ITALIAN.2160p.BluRay.REMUX.HEVC.DTS-HD.MA.5.1-FGT 75.74GB



◎译  名 夜深血红/Deep Red/喋血猎杀/深夜止步(台)/深红
◎片  名 Profondo rosso
◎年  代 1975
◎产  地 意大利
◎类  别 悬疑 / 恐怖 / 犯罪
◎语  言 意大利语
◎上映日期 1975-03-07
◎豆瓣评分 7.7/10 from 4201 users
◎豆瓣链接 https://movie.douban.com/subject/1299898/
◎片  长 126 分钟
◎导  演 达里奥·阿基多 Dario Argento
◎编  剧 贝纳迪诺·扎波尼 Bernardino Zapponi / 达里奥·阿基多 Dario Argento
◎主  演 戴维·海明斯 David Hemmings
      达里亚·尼科洛迪 Daria Nicolodi
      加布里埃莱·拉维亚 Gabriele Lavia
      克拉拉·卡拉马伊 Clara Calamai
      Geraldine Hooper Geraldine Hooper
      达里奥·阿基多 Dario Argento
      Piero Mazzinghi Piero Mazzinghi
      格劳科·毛里 Glauco Mauri
      Liana Del Balzo Liana Del Balzo
      爱洛斯·帕尼 Eros Pagni
      朱丽娅娜·盖兰德拉 Giuliana Calandra
      约翰·卡普洛斯 John Kapelos
      史蒂文·威廉姆斯 Steven Williams
      迈克尔·比恩 Michael Biehn
      托宾·贝尔 Tobin Bell
      琳赛·霍恩 Lindsey Haun
      Jack Andreozzi Jack Andreozzi
      Chayse Dacoda Chayse Dacoda
      Hank Cheyne Hank Cheyne
      约翰·德·兰西 John de Lancie
      迈克尔·德·巴雷斯 Michael Des Barres
      乔安娜·帕库拉 Joanna Pacula

◎标  签 意大利 | 恐怖 | 惊悚 | 悬疑 | 意大利电影 | 1975 | DarioArgento | 1970s

◎简  介

  意大利最伟大恐怖大师达里奥.亚金托(《阴风阵阵》)执导的经典悬疑恐怖片 。一个在罗马的英国音乐家在一本神秘的鬼怪书中读到关于他邻居如何残忍被杀的过程,他前去拜访该书的作者,发现她也成了谋杀的牺牲品。音乐家在解开谜团的过程中,经历了许多奇异而恐怖的事情。影片的形式感非常强,无论是令人心跳的摇滚乐还是恐怖气氛的营造,都十分到位。意大利的完整版比其他版本多出20多分钟,其中包含了更多的血腥暴力场面。

Video
ID : 1
ID in the original source medium : 4113 (0x1011)
Format : HEVC
Format/Info : High Efficiency Video Coding
Format profile : Main [email protected]@High
HDR format : Dolby Vision, Version 1.0, dvhe.07.06, BL+EL+RPU, Blu-ray compatible / SMPTE ST 2086, HDR10 compatible
Codec ID : V_MPEGH/ISO/HEVC
Duration : 2 h 7 min
Bit rate : 79.3 Mb/s
Width : 3 840 pixels
Height : 2 160 pixels
Display aspect ratio : 16:9
Frame rate mode : Constant
Frame rate : 23.976 (24000/1001/189150) FPS
Color space : YUV
Chroma subsampling : 4:2:0 (Type 2)
Bit depth : 10 bits
Bits/(Pixel*Frame) : 0.399
Stream size : 70.4 GiB (93%)
Language : English
Default : No
Forced : No
Color range : Limited
Color primaries : BT.2020
Transfer characteristics : PQ
Matrix coefficients : BT.2020 non-constant
Mastering display color primaries : BT.2020
Mastering display luminance : min: 0.0001 cd/m2, max: 1000 cd/m2
Original source medium : Blu-ray

Audio #1
ID : 2
ID in the original source medium : 4353 (0x1101)
Format : DTS XLL
Format/Info : Digital Theater Systems
Commercial name : DTS-HD Master Audio
Codec ID : A_DTS
Duration : 2 h 7 min
Bit rate mode : Variable
Bit rate : 2 199 kb/s
Channel(s) : 6 channels
Channel layout : C L R Ls Rs LFE
Sampling rate : 48.0 kHz
Frame rate : 93.750 FPS (512 SPF)
Bit depth : 16 bits
Compression mode : Lossless
Stream size : 1.95 GiB (3%)
Title : DTS-HD MA 5.1
Language : Italian
Default : Yes
Forced : No
Original source medium : Blu-ray

Audio #2
ID : 3
Format : AC-3
Format/Info : Audio Coding 3
Commercial name : Dolby Digital
Codec ID : A_AC3
Duration : 2 h 7 min
Bit rate mode : Constant
Bit rate : 640 kb/s
Channel(s) : 6 channels
Channel layout : L R C LFE Ls Rs
Sampling rate : 48.0 kHz
Frame rate : 31.250 FPS (1536 SPF)
Compression mode : Lossy
Stream size : 582 MiB (1%)
Title : DD 5.1
Language : Italian
Service kind : Complete Main
Default : No
Forced : No

Audio #3
ID : 4
ID in the original source medium : 4354 (0x1102)
Format : DTS XLL
Format/Info : Digital Theater Systems
Commercial name : DTS-HD Master Audio
Codec ID : A_DTS
Duration : 2 h 7 min
Bit rate mode : Variable
Bit rate : 1 031 kb/s
Channel(s) : 1 channel
Channel layout : C
Sampling rate : 48.0 kHz
Frame rate : 93.750 FPS (512 SPF)
Bit depth : 24 bits
Compression mode : Lossless
Stream size : 939 MiB (1%)
Title : DTS-HD MA 1.0
Language : English
Default : No
Forced : No
Original source medium : Blu-ray

Audio #4
ID : 5
Format : AC-3
Format/Info : Audio Coding 3
Commercial name : Dolby Digital
Codec ID : A_AC3
Duration : 2 h 7 min
Bit rate mode : Constant
Bit rate : 640 kb/s
Channel(s) : 1 channel
Channel layout : C
Sampling rate : 48.0 kHz
Frame rate : 31.250 FPS (1536 SPF)
Compression mode : Lossy
Stream size : 582 MiB (1%)
Language : English
Service kind : Complete Main
Default : No
Forced : No

Audio #5
ID : 6
ID in the original source medium : 4352 (0x1100)
Format : DTS XLL
Format/Info : Digital Theater Systems
Commercial name : DTS-HD Master Audio
Codec ID : A_DTS
Duration : 2 h 7 min
Bit rate mode : Variable
Bit rate : 1 046 kb/s
Channel(s) : 1 channel
Channel layout : C
Sampling rate : 48.0 kHz
Frame rate : 93.750 FPS (512 SPF)
Bit depth : 24 bits
Compression mode : Lossless
Stream size : 951 MiB (1%)
Title : DTS-HD MA 1.0
Language : Italian
Default : No
Forced : No
Original source medium : Blu-ray

Audio #6
ID : 7
ID in the original source medium : 4355 (0x1103)
Format : AC-3
Format/Info : Audio Coding 3
Commercial name : Dolby Digital
Codec ID : A_AC3
Duration : 2 h 7 min
Bit rate mode : Constant
Bit rate : 192 kb/s
Channel(s) : 2 channels
Channel layout : L R
Sampling rate : 48.0 kHz
Frame rate : 31.250 FPS (1536 SPF)
Compression mode : Lossy
Stream size : 175 MiB (0%)
Title : DD 2.0
Language : English
Service kind : Complete Main
Default : No
Forced : No
Original source medium : Blu-ray

Audio #7
ID : 8
ID in the original source medium : 4356 (0x1104)
Format : AC-3
Format/Info : Audio Coding 3
Commercial name : Dolby Digital
Codec ID : A_AC3
Duration : 2 h 7 min
Bit rate mode : Constant
Bit rate : 192 kb/s
Channel(s) : 2 channels
Channel layout : L R
Sampling rate : 48.0 kHz
Frame rate : 31.250 FPS (1536 SPF)
Compression mode : Lossy
Stream size : 175 MiB (0%)
Title : DD 2.0
Language : English
Service kind : Complete Main
Default : No
Forced : No
Original source medium : Blu-ray

Text #1
ID : 9
Format : UTF-8
Codec ID : S_TEXT/UTF8
Codec ID/Info : UTF-8 Plain Text
Duration : 2 h 2 min
Bit rate : 37 b/s
Count of elements : 899
Stream size : 33.5 KiB (0%)
Title : SRT
Language : English
Default : Yes
Forced : No

Text #2
ID : 10
ID in the original source medium : 4768 (0x12A0)
Format : PGS
Muxing mode : zlib
Codec ID : S_HDMV/PGS
Codec ID/Info : Picture based subtitle format used on BDs/HD-DVDs
Duration : 2 h 2 min
Bit rate : 23.4 kb/s
Count of elements : 1802
Stream size : 20.5 MiB (0%)
Language : English
Default : No
Forced : No
Original source medium : Blu-ray

Text #3
ID : 11
ID in the original source medium : 4769 (0x12A1)
Format : PGS
Muxing mode : zlib
Codec ID : S_HDMV/PGS
Codec ID/Info : Picture based subtitle format used on BDs/HD-DVDs
Duration : 1 h 59 min
Bit rate : 7 156 b/s
Count of elements : 516
Stream size : 6.13 MiB (0%)
Language : English
Default : No
Forced : No
Original source medium : Blu-ray

Text #4
ID : 12
ID in the original source medium : 4770 (0x12A2)
Format : PGS
Muxing mode : zlib
Codec ID : S_HDMV/PGS
Codec ID/Info : Picture based subtitle format used on BDs/HD-DVDs
Duration : 2 h 4 min
Bit rate : 29.1 kb/s
Count of elements : 2400
Stream size : 25.9 MiB (0%)
Language : English
Default : No
Forced : No
Original source medium : Blu-ray

Menu
00:00:00.000 : Chapter 00
00:00:34.034 : Chapter 01
00:11:17.718 : Chapter 02
00:20:33.315 : Chapter 03
00:31:46.112 : Chapter 04
00:44:54.942 : Chapter 05
00:53:29.080 : Chapter 06
01:01:27.934 : Chapter 07
01:13:47.172 : Chapter 08
01:26:34.564 : Chapter 09
01:36:40.336 : Chapter 10
01:48:44.851 : Chapter 11
01:55:25.376 : Chapter 12





1 个附件 售价 大小 下载 时间

Deep.Red.1975.ITALIAN.2160p.BluRay.REMUX.HEVC.DTS-HD.MA.5.1-FGT.torrent 0 金币 95.33K 784 次 11天前

#1楼
发帖时间:2021-10-14 12:09:34   |   回复数:0
游客组